Google Drive Suicide.Squad.2016.Extended.Cut.1080p.BluRay.DD5.1.Hi10P.x264-DON

Discussion in 'BDRip | 720p/1080p' started by DDLbase, Nov 17, 2019.

  1. DDLbase

    DDLbase Administrator Staff Member

    [​IMG]
    [​IMG]
    Code:
    General
    Unique ID                   : 219344362487241236390185111304035493106 (0xA50430058C898D073702E2CAB7C9E4F2)
    Complete name               : Suicide.Squad.2016.Extended.Cut.1080p.BluRay.DD5.1.Hi10P.x264-DON.mkv
    Format                      : Matroska
    Format version              : Version 4 / Version 2
    File size                   : 12.9 GiB
    Duration                    : 2 h 14 min
    Overall bit rate            : 13.7 Mb/s
    Movie name                  : Suicide Squad 2016 Extended Cut
    Encoded date                : UTC 2018-03-20 10:37:41
    Writing application         : mkvmerge v21.0.0 ('Tardigrades Will Inherit The Earth') 64-bit
    Writing library             : libebml v1.3.5 + libmatroska v1.4.8
    
    Video
    ID                          : 1
    Format                      : AVC
    Format/Info                 : Advanced Video Codec
    Format profile              : High [email protected]
    Format settings, CABAC      : Yes
    Format settings, ReFrames   : 6 frames
    Codec ID                    : V_MPEG4/ISO/AVC
    Duration                    : 2 h 14 min
    Bit rate                    : 13.1 Mb/s
    Width                       : 1 920 pixels
    Height                      : 800 pixels
    Display aspect ratio        : 2.40:1
    Frame rate mode             : Constant
    Frame rate                  : 23.976 (24000/1001) FPS
    Color space                 : YUV
    Chroma subsampling          : 4:2:0
    Bit depth                   : 10 bits
    Scan type                   : Progressive
    Bits/(Pixel*Frame)          : 0.355
    Stream size                 : 12.3 GiB (95%)
    Title                       : 1080p Hi10P x264 @ 13047 Kbps
    Writing library             : x264 core 152 r2851+58 429492e t_mod_Custom [[email protected] X86_64]
    Encoding settings           : cabac=1 / ref=6 / deblock=1:-3:-3 / analyse=0x3:0x133 / me=umh / subme=11 / psy=1 / fade_compensate=0.00 / psy_rd=1.05:0.00 / mixed_ref=1 / me_range=64 / chroma_me=1 / trellis=2 / 8x8dct=1 / cqm=0 / deadzone=21,11 / fast_pskip=0 / chroma_qp_offset=-2 / threads=24 / lookahead_threads=4 / sliced_threads=0 / nr=0 / decimate=0 / interlaced=0 / bluray_compat=0 / constrained_intra=0 / fgo=0 / bframes=9 / b_pyramid=2 / b_adapt=2 / b_bias=0 / direct=3 / weightb=1 / open_gop=0 / weightp=2 / keyint=250 / keyint_min=23 / scenecut=40 / intra_refresh=0 / rc=2pass / mbtree=0 / bitrate=13065 / ratetol=1.0 / qcomp=0.65 / qpmin=0:0:0 / qpmax=81:81:81 / qpstep=4 / cplxblur=20.0 / qblur=0.5 / ip_ratio=1.30 / pb_ratio=1.20 / aq=3:0.85 / aq-sensitivity=10.00 / aq-factor=1.00:1.00:1.00 / aq2=0 / aq3=0 / zones=4485,4840,b=1.10/6058,6254,b=1.10/7602,7851,b=1.10/11579,11656,b=1.15/13213,13239,b=1.10/13382,13657,b=1.15/16136,16346,b=1.15/19152,19280,b=1.15/19333,19487,b=1.15/19537,19565,b=1.15/19584,19609,b=1.15/19703,19789,b=1.15/19837,19881,b=1.15/19936,19954,b=1.15/19972,19995,b=1.15/20010,20093,b=1.15/20116,21190,b=1.15/21234,21462,b=1.15/24226,24372,b=1.15/24727,25203,b=1.15/25416,25587,b=1.15/26069,27062,b=1.25/35822,36395,b=1.10/46127,46603,b=1.10/48533,48632,b=1.10/50875,52173,b=1.10/56086,56286,b=1.10/59098,59380,b=1.15/61193,61292,b=1.10/61809,61907,b=1.10/62026,62117,b=1.10/70743,70965,b=1.10/70989,71012,b=1.10/71069,71112,b=1.10/71161,71211,b=1.10/71260,71319,b=1.10/72987,73176,b=1.10/74229,74860,b=1.15/74897,75075,b=1.10/78791,78872,b=1.10/79425,79492,b=1.10/90474,90702,b=1.10/93431,93506,b=1.10/94006,94075,b=1.15/94283,94304,b=1.15/94345,94660,b=1.15/95924,95961,b=1.15/100599,100661,b=1.15/116829,116920,b=1.15/117105,117155,b=1.15/117356,117391,b=1.15/117525,118177,b=1.15/118479,118520,b=1.15/118550,118679,b=1.15/118982,119150,b=1.15/119188,119275,b=1.15/119318,119354,b=1.15/119389,119735,b=1.15/119893,119999,b=1.15/120035,120142,b=1.15/120204,120270,b=1.15/120397,120484,b=1.15/120551,120690,b=1.15/121024,121218,b=1.15/121686,121887,b=1.15/122014,122182,b=1.20/123339,124036,b=1.20/124132,124214,b=1.20/124290,124380,b=1.20/124570,124827,b=1.20/125870,125971,b=1.20/128075,128200,b=1.25/128828,128912,b=1.20/128984,129253,b=1.25/131478,131518,b=1.25/131519,132633,b=1.20/147983,148115,b=1.25/149890,150065,b=1.25/150339,150497,b=1.20/155771,155929,b=1.25/156717,156900,b=1.15/157536,158095,b=1.25/158260,158494,b=1.20/159330,159409,b=1.15/159523,159579,b=1.25/160584,160768,b=1.25/160875,160982,b=1.25/160981,162129,b=1.15/162130,162258,b=1.25/162512,164731,b=1.15/165301,165327,b=1.15/166301,166422,b=1.25/168359,169180,b=1.25/178381,181789,b=1.15/183444,193555,b=0.6
    Language                    : English
    Default                     : Yes
    Forced                      : No
    Color range                 : Limited
    Matrix coefficients         : BT.709
    
    Audio
    ID                          : 2
    Format                      : AC-3
    Format/Info                 : Audio Coding 3
    Format settings, Endianness : Big
    Codec ID                    : A_AC3
    Duration                    : 2 h 14 min
    Bit rate mode               : Constant
    Bit rate                    : 640 kb/s
    Channel(s)                  : 6 channels
    Channel positions           : Front: L C R, Side: L R, LFE
    Sampling rate               : 48.0 kHz
    Frame rate                  : 31.250 FPS (1536 spf)
    Bit depth                   : 16 bits
    Compression mode            : Lossy
    Stream size                 : 616 MiB (5%)
    Title                       : Dolby Digital 5.1 @ 640 Kbps
    Language                    : English
    Service kind                : Complete Main
    Default                     : Yes
    Forced                      : No
    
    Text #1
    ID                          : 3
    Format                      : UTF-8
    Codec ID                    : S_TEXT/UTF8
    Codec ID/Info               : UTF-8 Plain Text
    Duration                    : 2 h 14 min
    Bit rate                    : 40 b/s
    Count of elements           : 1572
    Stream size                 : 40.3 KiB (0%)
    Language                    : Chinese
    Default                     : No
    Forced                      : No
    
    Text #2
    ID                          : 4
    Format                      : UTF-8
    Codec ID                    : S_TEXT/UTF8
    Codec ID/Info               : UTF-8 Plain Text
    Duration                    : 2 h 13 min
    Bit rate                    : 37 b/s
    Count of elements           : 1553
    Stream size                 : 36.8 KiB (0%)
    Language                    : Czech
    Default                     : No
    Forced                      : No
    
    Text #3
    ID                          : 5
    Format                      : UTF-8
    Codec ID                    : S_TEXT/UTF8
    Codec ID/Info               : UTF-8 Plain Text
    Duration                    : 2 h 6 min
    Bit rate                    : 46 b/s
    Count of elements           : 1502
    Stream size                 : 43.0 KiB (0%)
    Language                    : English
    Default                     : No
    Forced                      : No
    
    Text #4
    ID                          : 6
    Format                      : UTF-8
    Codec ID                    : S_TEXT/UTF8
    Codec ID/Info               : UTF-8 Plain Text
    Duration                    : 2 h 6 min
    Bit rate                    : 53 b/s
    Count of elements           : 1817
    Stream size                 : 49.6 KiB (0%)
    Title                       : SDH
    Language                    : English
    Default                     : No
    Forced                      : No
    
    Text #5
    ID                          : 7
    Format                      : UTF-8
    Codec ID                    : S_TEXT/UTF8
    Codec ID/Info               : UTF-8 Plain Text
    Duration                    : 2 h 14 min
    Bit rate                    : 41 b/s
    Count of elements           : 1561
    Stream size                 : 40.8 KiB (0%)
    Language                    : Finnish
    Default                     : No
    Forced                      : No
    
    Text #6
    ID                          : 8
    Format                      : UTF-8
    Codec ID                    : S_TEXT/UTF8
    Codec ID/Info               : UTF-8 Plain Text
    Duration                    : 2 h 14 min
    Bit rate                    : 45 b/s
    Count of elements           : 1556
    Stream size                 : 44.2 KiB (0%)
    Language                    : French
    Default                     : No
    Forced                      : No
    
    Text #7
    ID                          : 9
    Format                      : UTF-8
    Codec ID                    : S_TEXT/UTF8
    Codec ID/Info               : UTF-8 Plain Text
    Duration                    : 2 h 13 min
    Bit rate                    : 59 b/s
    Count of elements           : 1887
    Stream size                 : 58.1 KiB (0%)
    Language                    : German
    Default                     : No
    Forced                      : No
    
    Text #8
    ID                          : 10
    Format                      : UTF-8
    Codec ID                    : S_TEXT/UTF8
    Codec ID/Info               : UTF-8 Plain Text
    Duration                    : 2 h 14 min
    Bit rate                    : 84 b/s
    Count of elements           : 1570
    Stream size                 : 83.4 KiB (0%)
    Language                    : Greek
    Default                     : No
    Forced                      : No
    
    Text #9
    ID                          : 11
    Format                      : UTF-8
    Codec ID                    : S_TEXT/UTF8
    Codec ID/Info               : UTF-8 Plain Text
    Duration                    : 2 h 13 min
    Bit rate                    : 64 b/s
    Count of elements           : 1633
    Stream size                 : 63.4 KiB (0%)
    Language                    : Hebrew
    Default                     : No
    Forced                      : No
    
    Text #10
    ID                          : 12
    Format                      : UTF-8
    Codec ID                    : S_TEXT/UTF8
    Codec ID/Info               : UTF-8 Plain Text
    Duration                    : 2 h 7 min
    Bit rate                    : 52 b/s
    Count of elements           : 1510
    Stream size                 : 48.7 KiB (0%)
    Language                    : Hungarian
    Default                     : No
    Forced                      : No
    
    Text #11
    ID                          : 13
    Format                      : UTF-8
    Codec ID                    : S_TEXT/UTF8
    Codec ID/Info               : UTF-8 Plain Text
    Duration                    : 2 h 14 min
    Bit rate                    : 51 b/s
    Count of elements           : 1851
    Stream size                 : 50.8 KiB (0%)
    Language                    : Italian
    Default                     : No
    Forced                      : No
    
    Text #12
    ID                          : 14
    Format                      : UTF-8
    Codec ID                    : S_TEXT/UTF8
    Codec ID/Info               : UTF-8 Plain Text
    Duration                    : 2 h 14 min
    Bit rate                    : 46 b/s
    Count of elements           : 1558
    Stream size                 : 45.3 KiB (0%)
    Language                    : Romanian
    Default                     : No
    Forced                      : No
    
    Text #13
    ID                          : 15
    Format                      : UTF-8
    Codec ID                    : S_TEXT/UTF8
    Codec ID/Info               : UTF-8 Plain Text
    Duration                    : 2 h 13 min
    Bit rate                    : 43 b/s
    Count of elements           : 1171
    Stream size                 : 42.3 KiB (0%)
    Language                    : Serbian
    Default                     : No
    Forced                      : No
    
    Text #14
    ID                          : 16
    Format                      : UTF-8
    Codec ID                    : S_TEXT/UTF8
    Codec ID/Info               : UTF-8 Plain Text
    Duration                    : 2 h 14 min
    Bit rate                    : 44 b/s
    Count of elements           : 1372
    Stream size                 : 43.5 KiB (0%)
    Language                    : Slovenian
    Default                     : No
    Forced                      : No
    
    Text #15
    ID                          : 17
    Format                      : UTF-8
    Codec ID                    : S_TEXT/UTF8
    Codec ID/Info               : UTF-8 Plain Text
    Duration                    : 2 h 14 min
    Bit rate                    : 45 b/s
    Count of elements           : 1503
    Stream size                 : 45.0 KiB (0%)
    Language                    : Spanish
    Default                     : No
    Forced                      : No
    
    Text #16
    ID                          : 18
    Format                      : UTF-8
    Codec ID                    : S_TEXT/UTF8
    Codec ID/Info               : UTF-8 Plain Text
    Duration                    : 2 h 6 min
    Bit rate                    : 58 b/s
    Count of elements           : 1548
    Stream size                 : 54.7 KiB (0%)
    Language                    : Vietnamese
    Default                     : No
    Forced                      : No
    
    Menu
    00:00:00.000                : en:Chapter 01
    00:09:08.506                : en:Chapter 02
    00:20:22.972                : en:Chapter 03
    00:31:14.706                : en:Chapter 04
    00:41:04.879                : en:Chapter 05
    00:52:21.805                : en:Chapter 06
    01:04:48.843                : en:Chapter 07
    01:21:12.743                : en:Chapter 08
    01:32:11.943                : en:Chapter 09
    01:42:57.671                : en:Chapter 10
    01:50:58.652                : en:Chapter 11
    02:04:04.812                : en:Chapter 12
    Download:
     
  2. Loading...


Share This Page