Google Drive Syriana.2005.1080p.BluRay.x264-SUNSPOT

Discussion in 'BDRip | 720p/1080p' started by DDLbase, Apr 7, 2021 at 11:00 PM.

  1. DDLbase

    DDLbase Administrator Staff Member

    [​IMG]

    Rating: 6.9/10 based on 126,374 user ratings

    Genres: Drama, Thriller

    A politically charged epic about the state of the oil industry in the hands of those personally involved in and affected by it.

    [​IMG]
    Code:
    General
    Unique ID                   : 196871823791711457233333161706170865945 (0x941C22520FBB9C55956FE81101B7D919)
    Complete name               : Syriana.2005.1080p.BluRay.x264-SUNSPOT.mkv
    Format                      : Matroska
    Format version              : Version 1
    File size                   : 7.95 GiB
    Duration                    : 2 h 7 min
    Overall bit rate            : 8 907 kb/s
    Encoded date                : UTC 2008-08-13 18:36:53
    Writing application         : mkvmerge v2.2.0 ('Turn It On Again') built on Mar  4 2008 12:58:26
    Writing library             : libebml v0.7.7 + libmatroska v0.8.1
    
    Video
    ID                          : 1
    Format                      : AVC
    Format/Info                 : Advanced Video Codec
    Format profile              : [email protected]
    Format settings             : CABAC / 5 Ref Frames
    Format settings, CABAC      : Yes
    Format settings, Reference  : 5 frames
    Codec ID                    : V_MPEG4/ISO/AVC
    Duration                    : 2 h 7 min
    Bit rate                    : 8 263 kb/s
    Width                       : 1 920 pixels
    Height                      : 800 pixels
    Display aspect ratio        : 2.40:1
    Frame rate mode             : Constant
    Frame rate                  : 23.976 FPS
    Color space                 : YUV
    Chroma subsampling          : 4:2:0
    Bit depth                   : 8 bits
    Scan type                   : Progressive
    Bits/(Pixel*Frame)          : 0.224
    Stream size                 : 7.22 GiB (91%)
    Title                       : h264 1920x800
    Writing library             : x264 core 60
    Encoding settings           : cabac=1 / ref=5 / deblock=1:0:0 / analyse=0x3:0x133 / me=umh / subme=7 / psy_rd=1.000000 / brdo=1 / mixed_ref=1 / me_range=24 / chroma_me=1 / trellis=2 / 8x8dct=1 / cqm=0 / deadzone=21,11 / chroma_qp_offset=0 / threads=12 / nr=0 / decimate=1 / mbaff=0 / bframes=12 / b_pyramid=1 / b_adapt=1 / b_bias=0 / direct=1 / wpredb=1 / bime=1 / keyint=239 / keyint_min=25 / scenecut=40(pre) / rc=2pass / bitrate=8263 / ratetol=1.0 / rceq='blurCplx^(1-qComp)' / qcomp=1.00 / qpmin=10 / qpmax=51 / qpstep=4 / cplxblur=20.0 / qblur=0.5 / ip_ratio=1.40 / pb_ratio=1.30 / aq=2:1.00
    Language                    : English
    Default                     : Yes
    Forced                      : No
    
    Audio
    ID                          : 2
    Format                      : AC-3
    Format/Info                 : Audio Coding 3
    Commercial name             : Dolby Digital
    Codec ID                    : A_AC3
    Duration                    : 2 h 7 min
    Bit rate mode               : Constant
    Bit rate                    : 640 kb/s
    Channel(s)                  : 6 channels
    Channel layout              : L R C LFE Ls Rs
    Sampling rate               : 48.0 kHz
    Frame rate                  : 31.250 FPS (1536 SPF)
    Compression mode            : Lossy
    Stream size                 : 585 MiB (7%)
    Title                       : h264 1920xsomething
    Language                    : English
    Service kind                : Complete Main
    Default                     : Yes
    Forced                      : No
    Download - Mirror 1:
    Download - Mirror 2:
     
  2. Loading...


Share This Page