Google Drive That.Thing.You.Do.1996.EXTENDED.1080p.BluRay.x264-AMIABLE

Discussion in 'BDRip | 720p/1080p' started by DDLbase, Jan 25, 2021.

  1. DDLbase

    DDLbase Administrator Staff Member

    [​IMG]

    Rating: 6.9/10 based on 62,288 user ratings

    Genres: Comedy, Drama, Music

    A local Pennsylvania band scores a one hit wonder in 1964 and rides the star-making machinery as long as they can, with lots of help from its manager.

    [​IMG]
    Code:
    General
    Complete name               : That.Thing.You.Do.1996.EXTENDED.1080p.BluRay.x264-AMIABLE.mkv
    Format                      : Matroska
    Format version              : Version 2
    File size                   : 10.9 GiB
    Duration                    : 2 h 27 min
    Overall bit rate            : 10.6 Mb/s
    Writing application         : mkvmerge v4.1.1 ('Bouncin' Back') built on Jul  3 2010 22:54:08
    Writing library             : libebml v1.0.0 + libmatroska v1.0
    
    Video
    ID                          : 1
    Format                      : AVC
    Format/Info                 : Advanced Video Codec
    Format profile              : [email protected]
    Format settings             : CABAC / 4 Ref Frames
    Format settings, CABAC      : Yes
    Format settings, Reference  : 4 frames
    Codec ID                    : V_MPEG4/ISO/AVC
    Duration                    : 2 h 27 min
    Bit rate                    : 9 095 kb/s
    Width                       : 1 920 pixels
    Height                      : 1 040 pixels
    Display aspect ratio        : 1.85:1
    Frame rate mode             : Constant
    Frame rate                  : 23.976 (24000/1001) FPS
    Color space                 : YUV
    Chroma subsampling          : 4:2:0
    Bit depth                   : 8 bits
    Scan type                   : Progressive
    Bits/(Pixel*Frame)          : 0.190
    Stream size                 : 9.15 GiB (84%)
    Writing library             : x264 core 130 r2273 b3065e6
    Encoding settings           : cabac=1 / ref=4 / deblock=1:0:0 / analyse=0x3:0x113 / me=umh / subme=8 / psy=1 / psy_rd=1.00:0.00 / mixed_ref=1 / me_range=16 / chroma_me=1 / trellis=1 / 8x8dct=1 / cqm=0 / deadzone=21,11 / fast_pskip=1 / chroma_qp_offset=-2 / threads=6 / lookahead_threads=1 / sliced_threads=0 / nr=0 / decimate=1 / interlaced=0 / bluray_compat=0 / constrained_intra=0 / bframes=3 / b_pyramid=2 / b_adapt=2 / b_bias=0 / direct=3 / weightb=1 / open_gop=0 / weightp=2 / keyint=240 / keyint_min=24 / scenecut=40 / intra_refresh=0 / rc_lookahead=50 / rc=2pass / mbtree=1 / bitrate=9095 / ratetol=1.0 / qcomp=0.60 / qpmin=0 / qpmax=69 / qpstep=4 / cplxblur=20.0 / qblur=0.5 / ip_ratio=1.40 / aq=1:1.00
    Language                    : English
    Default                     : Yes
    Forced                      : No
    
    Audio
    ID                          : 2
    Format                      : DTS
    Format/Info                 : Digital Theater Systems
    Codec ID                    : A_DTS
    Duration                    : 2 h 27 min
    Bit rate mode               : Constant
    Bit rate                    : 1 509 kb/s
    Channel(s)                  : 6 channels
    Channel layout              : C L R Ls Rs LFE
    Sampling rate               : 48.0 kHz
    Frame rate                  : 93.750 FPS (512 SPF)
    Bit depth                   : 24 bits
    Compression mode            : Lossy
    Stream size                 : 1.56 GiB (14%)
    Language                    : English
    Default                     : Yes
    Forced                      : No
    
    Text #1
    ID                          : 3
    Format                      : UTF-8
    Codec ID                    : S_TEXT/UTF8
    Codec ID/Info               : UTF-8 Plain Text
    Title                       : SDH
    Language                    : English
    Default                     : No
    Forced                      : No
    
    Text #2
    ID                          : 4
    Format                      : UTF-8
    Codec ID                    : S_TEXT/UTF8
    Codec ID/Info               : UTF-8 Plain Text
    Language                    : English
    Default                     : No
    Forced                      : No
    
    Menu
    00:00:00.000                : en:00:00:00.000
    00:03:52.983                : en:00:03:52.983
    00:08:34.180                : en:00:08:34.180
    00:11:05.582                : en:00:11:05.582
    00:13:20.091                : en:00:13:20.091
    00:16:13.848                : en:00:16:13.848
    00:18:34.780                : en:00:18:34.780
    00:21:12.396                : en:00:21:12.396
    00:24:53.492                : en:00:24:53.492
    00:31:15.957                : en:00:31:15.957
    00:33:11.781                : en:00:33:11.781
    00:34:33.279                : en:00:34:33.279
    00:35:43.975                : en:00:35:43.975
    00:37:04.472                : en:00:37:04.472
    00:41:53.761                : en:00:41:53.761
    00:43:41.244                : en:00:43:41.244
    00:46:57.481                : en:00:46:57.481
    00:48:19.188                : en:00:48:19.188
    00:56:36.852                : en:00:56:36.852
    01:00:15.111                : en:01:00:15.111
    01:06:03.167                : en:01:06:03.167
    01:10:18.673                : en:01:10:18.673
    01:14:09.695                : en:01:14:09.695
    01:19:28.388                : en:01:19:28.388
    01:22:29.111                : en:01:22:29.111
    01:27:02.926                : en:01:27:02.926
    01:32:36.968                : en:01:32:36.968
    01:39:29.547                : en:01:39:29.547
    01:40:00.828                : en:01:40:00.828
    01:41:17.154                : en:01:41:17.154
    01:42:21.927                : en:01:42:21.927
    01:47:48.378                : en:01:47:48.378
    01:52:46.009                : en:01:52:46.009
    01:56:49.002                : en:01:56:49.002
    02:00:29.097                : en:02:00:29.097
    02:04:28.169                : en:02:04:28.169
    02:08:35.582                : en:02:08:35.582
    02:13:38.135                : en:02:13:38.135
    02:18:39.978                : en:02:18:39.978
    02:21:12.213                : en:02:21:12.213
    Download - Mirror 1:
    Download - Mirror 2:
     
  2. Loading...


Share This Page