Google Drive The.Animatrix.2003.1080p.BluRay.x264-DON

Discussion in 'BDRip | 720p/1080p' started by DDLbase, Jul 28, 2020.

  1. DDLbase

    DDLbase Administrator Staff Member

    [​IMG]

    Rating: 7.4/10 based on 70,276 user ratings

    Genres: Animation, Action, Adventure, Sci-Fi

    The Animatrix is a collection of several animated short films, detailing the backstory of the “Matrix” universe, and the original war between man and machines which led to the creation of the Matrix.

    [​IMG]
    Code:
    General
    Unique ID                   : 249490451855999450342509324237421254568 (0xBBB21CFB1F39492389CC1FA1DAD597A8)
    Complete name               : The.Animatrix.2003.1080p.BluRay.x264-DON.mkv
    Format                      : Matroska
    Format version              : Version 4
    File size                   : 8.32 GiB
    Duration                    : 1 h 40 min
    Overall bit rate            : 11.8 Mb/s
    Movie name                  : The Animatrix (2003)
    Encoded date                : UTC 2014-04-29 12:10:10
    Writing application         : mkvmerge v6.9.1 ('Blue Panther') 32bit built on Apr 18 2014 18:15:44
    Writing library             : libebml v1.3.0 + libmatroska v1.4.1
    
    Video
    ID                          : 1
    Format                      : AVC
    Format/Info                 : Advanced Video Codec
    Format profile              : [email protected]
    Format settings             : CABAC / 5 Ref Frames
    Format settings, CABAC      : Yes
    Format settings, Reference  : 5 frames
    Codec ID                    : V_MPEG4/ISO/AVC
    Duration                    : 1 h 40 min
    Bit rate                    : 10.9 Mb/s
    Width                       : 1 912 pixels
    Height                      : 802 pixels
    Display aspect ratio        : 2.40:1
    Frame rate mode             : Constant
    Frame rate                  : 23.976 (24000/1001) FPS
    Color space                 : YUV
    Chroma subsampling          : 4:2:0
    Bit depth                   : 8 bits
    Scan type                   : Progressive
    Bits/(Pixel*Frame)          : 0.297
    Stream size                 : 7.70 GiB (93%)
    Writing library             : x264 core 142 r2431+42 c69a006 tMod [[email protected] X86_64]
    Encoding settings           : cabac=1 / ref=5 / deblock=1:-1:-1 / analyse=0x3:0x133 / me=tesa / subme=10 / psy=1 / fade_compensate=0.00 / psy_rd=0.50:0.00 / mixed_ref=1 / me_range=24 / chroma_me=1 / trellis=2 / 8x8dct=1 / cqm=0 / deadzone=21,11 / fast_pskip=0 / chroma_qp_offset=-2 / threads=12 / lookahead_threads=3 / sliced_threads=0 / nr=0 / decimate=0 / interlaced=0 / bluray_compat=0 / constrained_intra=0 / fgo=0 / bframes=10 / b_pyramid=2 / b_adapt=2 / b_bias=0 / direct=3 / weightb=1 / open_gop=0 / weightp=2 / keyint=250 / keyint_min=23 / scenecut=40 / intra_refresh=0 / rc_lookahead=60 / rc=crf / mbtree=0 / crf=15.0000 / qcomp=0.65 / qpmin=0:0:0 / qpmax=69:69:69 / qpstep=4 / vbv_maxrate=62500 / vbv_bufsize=78125 / crf_max=0.0 / nal_hrd=none / filler=0 / ip_ratio=1.40 / pb_ratio=1.30 / aq=4:0.80 / aq-sensitivity=10.00 / aq-factor=1.00:1.00:1.00 / aq2=0 / aq3=0 / zones=369,1958,crf=14/1959,2109,crf=12/2110,13725,crf=14/22318,22623,crf=13/22937,23098,crf=13/23692,23763,crf=12/26293,26576,crf=13/27986,28287,crf=13/30128,30187,crf=13/31150,31548,crf=14/33622,33695,crf=13/34954,35107,crf=14/36332,36428,crf=14/36429,36587,crf=13/37765,37829,crf=13/49552,49680,crf=13/50060,50106,crf=13/53559,53738,crf=13/53871,54014,crf=14/67253,67564,crf=13/68629,68709,crf=13/68846,68976,crf=13/69564,69645,crf=14/69754,69837,crf=13/70213,70380,crf=13/72021,72053,crf=12/72109,72132,crf=13/72155,74060,crf=14/74248,74337,crf=11/74512,74942,crf=14/75572,75715,crf=13/76502,76510,crf=11/77065,77160,crf=13/78205,78274,crf=13/79366,79499,crf=11/79830,80408,crf=14/86877,87079,crf=10/87080,87134,crf=12/88915,89194,crf=13/89654,89725,crf=11/90593,90645,crf=10/90772,90820,crf=11/90910,91006,crf=11/91451,91520,crf=10/91521,92140,crf=12/92782,92831,crf=10/92832,93049,crf=13/93157,93244,crf=13/93672,93750,crf=13/95684,95742,crf=13/95778,95850,crf=11/96550,110257,crf=17/110684,110738,crf=14/111277,111348,crf=12/112560,112607,crf=13/113250,113297,crf=13/113394,113525,crf=13/113919,113982,crf=13/114808,114891,crf=12/115899,115947,crf=13/116603,116629,crf=13/119188,119259,crf=13/122225,122272,crf=13/122321,122378,crf=12/123077,123148,crf=10/125574,125690,crf=11/125698,125745,crf=10/125818,125889,crf=13/126026,126065,crf=11/126138,126185,crf=11/126318,126389,crf=12/126438,126465,crf=11/132687,132782,crf=12/133024,133044,crf=12/133577,133609,crf=13/133736,133777,crf=13/133780,145064,crf=16
    Language                    : English
    Default                     : Yes
    Forced                      : No
    
    Audio
    ID                          : 2
    Format                      : AC-3
    Format/Info                 : Audio Coding 3
    Commercial name             : Dolby Digital
    Codec ID                    : A_AC3
    Duration                    : 1 h 40 min
    Bit rate mode               : Constant
    Bit rate                    : 640 kb/s
    Channel(s)                  : 6 channels
    Channel layout              : L R C LFE Ls Rs
    Sampling rate               : 48.0 kHz
    Frame rate                  : 31.250 FPS (1536 SPF)
    Compression mode            : Lossy
    Stream size                 : 462 MiB (5%)
    Language                    : English
    Service kind                : Complete Main
    Default                     : Yes
    Forced                      : No
    
    Text #1
    ID                          : 3
    Format                      : UTF-8
    Codec ID                    : S_TEXT/UTF8
    Codec ID/Info               : UTF-8 Plain Text
    Language                    : Croatian
    Default                     : No
    Forced                      : No
    
    Text #2
    ID                          : 4
    Format                      : UTF-8
    Codec ID                    : S_TEXT/UTF8
    Codec ID/Info               : UTF-8 Plain Text
    Language                    : Czech
    Default                     : No
    Forced                      : No
    
    Text #3
    ID                          : 5
    Format                      : UTF-8
    Codec ID                    : S_TEXT/UTF8
    Codec ID/Info               : UTF-8 Plain Text
    Language                    : Dutch
    Default                     : No
    Forced                      : No
    
    Text #4
    ID                          : 6
    Format                      : UTF-8
    Codec ID                    : S_TEXT/UTF8
    Codec ID/Info               : UTF-8 Plain Text
    Language                    : English
    Default                     : No
    Forced                      : No
    
    Text #5
    ID                          : 7
    Format                      : UTF-8
    Codec ID                    : S_TEXT/UTF8
    Codec ID/Info               : UTF-8 Plain Text
    Language                    : Finnish
    Default                     : No
    Forced                      : No
    
    Text #6
    ID                          : 8
    Format                      : UTF-8
    Codec ID                    : S_TEXT/UTF8
    Codec ID/Info               : UTF-8 Plain Text
    Language                    : French
    Default                     : No
    Forced                      : No
    
    Text #7
    ID                          : 9
    Format                      : UTF-8
    Codec ID                    : S_TEXT/UTF8
    Codec ID/Info               : UTF-8 Plain Text
    Language                    : Hungarian
    Default                     : No
    Forced                      : No
    
    Text #8
    ID                          : 10
    Format                      : UTF-8
    Codec ID                    : S_TEXT/UTF8
    Codec ID/Info               : UTF-8 Plain Text
    Language                    : Italian
    Default                     : No
    Forced                      : No
    
    Text #9
    ID                          : 11
    Format                      : UTF-8
    Codec ID                    : S_TEXT/UTF8
    Codec ID/Info               : UTF-8 Plain Text
    Language                    : Polish
    Default                     : No
    Forced                      : No
    
    Text #10
    ID                          : 12
    Format                      : UTF-8
    Codec ID                    : S_TEXT/UTF8
    Codec ID/Info               : UTF-8 Plain Text
    Title                       : Brazilian
    Language                    : Portuguese
    Default                     : No
    Forced                      : No
    
    Text #11
    ID                          : 13
    Format                      : UTF-8
    Codec ID                    : S_TEXT/UTF8
    Codec ID/Info               : UTF-8 Plain Text
    Language                    : Romanian
    Default                     : No
    Forced                      : No
    
    Text #12
    ID                          : 14
    Format                      : UTF-8
    Codec ID                    : S_TEXT/UTF8
    Codec ID/Info               : UTF-8 Plain Text
    Title                       : Latin American
    Language                    : Spanish
    Default                     : No
    Forced                      : No
    
    Text #13
    ID                          : 15
    Format                      : UTF-8
    Codec ID                    : S_TEXT/UTF8
    Codec ID/Info               : UTF-8 Plain Text
    Language                    : Swedish
    Default                     : No
    Forced                      : No
    
    Text #14
    ID                          : 16
    Format                      : UTF-8
    Codec ID                    : S_TEXT/UTF8
    Codec ID/Info               : UTF-8 Plain Text
    Language                    : Vietnamese
    Default                     : No
    Forced                      : No
    
    Menu
    00:00:00.000                : en:Final Flight of the Osiris
    00:09:34.032                : en:The Second Renaissance Part I
    00:18:48.878                : en:The Second Renaissance Part II
    00:28:11.982                : en:Kid's Story
    00:37:50.602                : en:Program
    00:45:06.162                : en:World Record
    00:53:49.977                : en:Beyond
    01:06:53.718                : en:A Detective Story
    01:16:44.350                : en:Matriculated
    01:33:01.701                : en:Credits
    Download:
     
  2. Loading...


Share This Page