Google Drive The.Batman.2022.2160p.MA.WEB-DL.DDP5.1.Atmos.HDR.HEVC-MZABI

Discussion in 'Web-DL / Webrip | 4K' started by DDLbase, Apr 19, 2022.

  1. DDLbase

    DDLbase Administrator Staff Member

    [​IMG]

    Rating: 8.3/10 based on 330,654 user ratings

    Genres: Action, Crime, Drama

    When the Riddler, a sadistic serial killer, begins murdering key political figures in Gotham, Batman is forced to investigate the city's hidden corruption and question his family's involvement.

    [​IMG]
    Code:
    General
    Unique ID                   : 122682820018119738874470969731297813719 (0x5C4BDA0745E121A2F49A9D96199FA4D7)
    Complete name               : The.Batman.2022.2160p.MA.WEB-DL.DDP5.1.Atmos.HDR.HEVC-MZABI.mkv
    Format                      : Matroska
    Format version              : Version 4
    File size                   : 31.7 GiB
    Duration                    : 2 h 56 min
    Overall bit rate            : 25.7 Mb/s
    Movie name                  : The Batman (2022)
    Encoded date                : UTC 2022-04-19 01:23:55
    Writing application         : mkvmerge v66.0.0 ('Josie') 64-bit
    Writing library             : libebml v1.4.2 + libmatroska v1.6.4
    
    Video
    ID                          : 1
    Format                      : HEVC
    Format/Info                 : High Efficiency Video Coding
    Format profile              : Main [email protected]@High
    HDR format                  : SMPTE ST 2086, HDR10 compatible
    Codec ID                    : V_MPEGH/ISO/HEVC
    Duration                    : 2 h 56 min
    Bit rate                    : 25.0 Mb/s
    Width                       : 3 840 pixels
    Height                      : 2 160 pixels
    Display aspect ratio        : 16:9
    Frame rate mode             : Constant
    Frame rate                  : 23.976 (24000/1001) FPS
    Color space                 : YUV
    Chroma subsampling          : 4:2:0 (Type 2)
    Bit depth                   : 10 bits
    Bits/(Pixel*Frame)          : 0.126
    Stream size                 : 30.7 GiB (97%)
    Language                    : English
    Default                     : Yes
    Forced                      : No
    Color range                 : Limited
    Color primaries             : BT.2020
    Transfer characteristics    : PQ
    Matrix coefficients         : BT.2020 non-constant
    Mastering display color pri : Display P3
    Mastering display luminance : min: 0.0001 cd/m2, max: 1000 cd/m2
    Maximum Content Light Level : 413 cd/m2
    Maximum Frame-Average Light : 65 cd/m2
    
    Audio
    ID                          : 2
    Format                      : E-AC-3 JOC
    Format/Info                 : Enhanced AC-3 with Joint Object Coding
    Commercial name             : Dolby Digital Plus with Dolby Atmos
    Codec ID                    : A_EAC3
    Duration                    : 2 h 56 min
    Bit rate mode               : Constant
    Bit rate                    : 768 kb/s
    Channel(s)                  : 6 channels
    Channel layout              : L R C LFE Ls Rs
    Sampling rate               : 48.0 kHz
    Frame rate                  : 31.250 FPS (1536 SPF)
    Compression mode            : Lossy
    Stream size                 : 968 MiB (3%)
    Title                       : Original
    Language                    : English
    Service kind                : Complete Main
    Default                     : Yes
    Forced                      : No
    Complexity index            : 16
    Number of dynamic objects   : 15
    Bed channel count           : 1 channel
    Bed channel configuration   : LFE
    
    Text #1
    ID                          : 3
    Format                      : UTF-8
    Codec ID                    : S_TEXT/UTF8
    Codec ID/Info               : UTF-8 Plain Text
    Duration                    : 2 h 46 min
    Bit rate                    : 83 b/s
    Count of elements           : 1898
    Stream size                 : 101 KiB (0%)
    Title                       : Cool Story Blog
    Language                    : Russian
    Default                     : Yes
    Forced                      : No
    
    Text #2
    ID                          : 4
    Format                      : UTF-8
    Codec ID                    : S_TEXT/UTF8
    Codec ID/Info               : UTF-8 Plain Text
    Duration                    : 2 h 43 min
    Bit rate                    : 45 b/s
    Count of elements           : 2040
    Stream size                 : 54.7 KiB (0%)
    Title                       : Original
    Language                    : English
    Default                     : No
    Forced                      : No
    
    Text #3
    ID                          : 5
    Format                      : UTF-8
    Codec ID                    : S_TEXT/UTF8
    Codec ID/Info               : UTF-8 Plain Text
    Duration                    : 2 h 55 min
    Bit rate                    : 53 b/s
    Count of elements           : 2573
    Stream size                 : 69.3 KiB (0%)
    Title                       : Original (SDH)
    Language                    : English
    Default                     : No
    Forced                      : No
    
    Menu
    00:00:00.000                : en:1
    00:12:02.000                : en:2
    00:23:22.000                : en:3
    00:32:56.000                : en:4
    00:44:38.000                : en:5
    00:55:44.000                : en:6
    01:04:06.000                : en:7
    01:15:51.000                : en:8
    01:27:06.000                : en:9
    01:40:48.000                : en:10
    01:52:12.000                : en:11
    02:00:47.000                : en:12
    02:11:39.000                : en:13
    02:21:06.000                : en:14
    02:33:06.000                : en:15
    02:45:27.000                : en:16
    Download - Mirror 1:
    Download - Mirror 2:
     
  2. Loading...


Share This Page