Google Drive The.Batman.2022.2160p.UHD.BluRay.x265-SURCODE

Discussion in 'BDRip | 4K' started by DDLbase, May 20, 2022.

  1. DDLbase

    DDLbase Administrator Staff Member

    [​IMG]

    Rating: 8.0/10 based on 474,936 user ratings

    Genres: Action, Crime, Drama

    When the Riddler, a sadistic serial killer, begins murdering key political figures in Gotham, Batman is forced to investigate the city's hidden corruption and question his family's involvement.

    [​IMG]
    Code:
    General
    Unique ID                   : 98342259226059437334309061442430104235 (0x49FC07BA271C7B912D07AAEBA868F2AB)
    Complete name               : The.Batman.2022.2160p.UHD.BluRay.x265-SURCODE.mkv
    Format                      : Matroska
    Format version              : Version 4
    File size                   : 35.2 GiB
    Duration                    : 2 h 56 min
    Overall bit rate mode       : Variable
    Overall bit rate            : 28.6 Mb/s
    Movie name                  : The Batman
    Encoded date                : UTC 2022-05-18 13:20:30
    Writing application         : mkvmerge v67.0.0 ('Under Stars') 64-bit
    Writing library             : libebml v1.4.2 + libmatroska v1.6.4
    Cover                       : Yes
    Attachments                 : cover.jpg
    
    Video
    ID                          : 1
    Format                      : HEVC
    Format/Info                 : High Efficiency Video Coding
    Format profile              : Main [email protected]@High
    HDR format                  : SMPTE ST 2086, HDR10 compatible
    Codec ID                    : V_MPEGH/ISO/HEVC
    Duration                    : 2 h 56 min
    Bit rate                    : 24.7 Mb/s
    Width                       : 3 840 pixels
    Height                      : 1 608 pixels
    Display aspect ratio        : 2.40:1
    Frame rate mode             : Constant
    Frame rate                  : 23.976 (24000/1001) FPS
    Color space                 : YUV
    Chroma subsampling          : 4:2:0 (Type 2)
    Bit depth                   : 10 bits
    Bits/(Pixel*Frame)          : 0.167
    Stream size                 : 30.5 GiB (86%)
    Writing library             : x265 3.5+36-9b59d4554:[Windows][MSVC 1900][64 bit] 10bit
    Encoding settings           : cpuid=1111039 / frame-threads=5 / numa-pools=32 / wpp / no-pmode / no-pme / no-psnr / no-ssim / log-level=2 / input-csp=1 / input-res=3840x1608 / interlace=0 / total-frames=253465 / level-idc=51 / high-tier=1 / uhd-bd=0 / ref=4 / no-allow-non-conformance / repeat-headers / annexb / aud / no-eob / no-eos / hrd / info / hash=0 / no-temporal-layers / no-open-gop / min-keyint=23 / keyint=250 / gop-lookahead=0 / bframes=4 / b-adapt=2 / b-pyramid / bframe-bias=0 / rc-lookahead=25 / lookahead-slices=4 / scenecut=40 / no-hist-scenecut / radl=0 / no-splice / no-intra-refresh / ctu=64 / min-cu-size=8 / rect / no-amp / max-tu-size=32 / tu-inter-depth=1 / tu-intra-depth=1 / limit-tu=0 / rdoq-level=2 / dynamic-rd=0.00 / no-ssim-rd / signhide / no-tskip / nr-intra=0 / nr-inter=0 / no-constrained-intra / no-strong-intra-smoothing / max-merge=3 / limit-refs=3 / limit-modes / me=3 / subme=3 / merange=57 / temporal-mvp / no-frame-dup / no-hme / weightp / no-weightb / no-analyze-src-pics / deblock=-3:-3 / no-sao / no-sao-non-deblock / rd=4 / selective-sao=0 / no-early-skip / rskip / no-fast-intra / no-tskip-fast / no-cu-lossless / no-b-intra / no-splitrd-skip / rdpenalty=0 / psy-rd=2.00 / psy-rdoq=1.00 / no-rd-refine / no-lossless / cbqpoffs=0 / crqpoffs=0 / rc=crf / crf=12.0 / qcomp=0.60 / qpstep=4 / stats-write=0 / stats-read=0 / vbv-maxrate=160000 / vbv-bufsize=160000 / vbv-init=0.9 / min-vbv-fullness=50.0 / max-vbv-fullness=80.0 / crf-max=0.0 / crf-min=0.0 / ipratio=1.40 / pbratio=1.30 / aq-mode=2 / aq-strength=1.00 / cutree / zone-count=0 / no-strict-cbr / qg-size=32 / no-rc-grain / qpmax=69 / qpmin=0 / no-const-vbv / sar=1 / overscan=0 / videoformat=5 / range=0 / colorprim=9 / transfer=16 / colormatrix=9 / chromaloc=1 / chromaloc-top=2 / chromaloc-bottom=2 / display-window=0 / master-display=G(13250,34500)B(7500,3000)R(34000,16000)WP(15635,16450)L(10000000,01) / cll=413,65 / min-luma=0 / max-luma=1023 / log2-max-poc-lsb=8 / vui-timing-info / vui-hrd-info / slices=1 / no-opt-qp-pps / no-opt-ref-list-length-pps / no-multi-pass-opt-rps / scenecut-bias=0.05 / hist-threshold=0.03 / no-opt-cu-delta-qp / no-aq-motion / hdr10 / hdr10-opt / no-dhdr10-opt / no-idr-recovery-sei / analysis-reuse-level=0 / analysis-save-reuse-level=0 / analysis-load-reuse-level=0 / scale-factor=0 / refine-intra=0 / refine-inter=0 / refine-mv=1 / refine-ctu-distortion=0 / no-limit-sao / ctu-info=0 / no-lowpass-dct / refine-analysis-type=0 / copy-pic=1 / max-ausize-factor=1.0 / no-dynamic-refine / no-single-sei / no-hevc-aq / no-svt / no-field / qp-adaptation-range=1.00 / scenecut-aware-qp=0conformance-window-offsets / right=0 / bottom=0 / decoder-max-rate=0 / no-vbv-live-multi-pass
    Default                     : Yes
    Forced                      : No
    Color range                 : Limited
    Color primaries             : BT.2020
    Transfer characteristics    : PQ
    Matrix coefficients         : BT.2020 non-constant
    Mastering display color pri : Display P3
    Mastering display luminance : min: 0.0001 cd/m2, max: 1000 cd/m2
    Maximum Content Light Level : 413 cd/m2
    Maximum Frame-Average Light : 65 cd/m2
    
    Audio #1
    ID                          : 2
    ID in the original source m : 4352 (0x1100)
    Format                      : MLP FBA 16-ch
    Format/Info                 : Meridian Lossless Packing FBA with 16-channel presentation
    Commercial name             : Dolby TrueHD with Dolby Atmos
    Codec ID                    : A_TRUEHD
    Duration                    : 2 h 56 min
    Bit rate mode               : Variable
    Bit rate                    : 3 028 kb/s
    Maximum bit rate            : 5 271 kb/s
    Channel(s)                  : 8 channels
    Channel layout              : L R C LFE Ls Rs Lb Rb
    Sampling rate               : 48.0 kHz
    Frame rate                  : 1 200.000 FPS (40 SPF)
    Bit depth                   : 24 bits
    Compression mode            : Lossless
    Stream size                 : 3.73 GiB (11%)
    Title                       : Surround 7.1
    Language                    : English
    Default                     : Yes
    Forced                      : No
    Original source medium      : Blu-ray
    Number of dynamic objects   : 11
    Bed channel count           : 1 channel
    Bed channel configuration   : LFE
    
    Audio #2
    ID                          : 3
    ID in the original source m : 4352 (0x1100)
    Format                      : AC-3
    Format/Info                 : Audio Coding 3
    Commercial name             : Dolby Digital
    Format settings             : Dolby Surround EX
    Codec ID                    : A_AC3
    Duration                    : 2 h 56 min
    Bit rate mode               : Constant
    Bit rate                    : 448 kb/s
    Channel(s)                  : 6 channels
    Channel layout              : L R C LFE Ls Rs
    Sampling rate               : 48.0 kHz
    Frame rate                  : 31.250 FPS (1536 SPF)
    Compression mode            : Lossy
    Stream size                 : 565 MiB (2%)
    Title                       : Surround 5.1
    Language                    : English
    Service kind                : Complete Main
    Default                     : No
    Forced                      : No
    Original source medium      : Blu-ray
    
    Audio #3
    ID                          : 4
    Format                      : AAC LC
    Format/Info                 : Advanced Audio Codec Low Complexity
    Codec ID                    : A_AAC-2
    Duration                    : 2 h 56 min
    Bit rate                    : 122 kb/s
    Channel(s)                  : 2 channels
    Channel layout              : L R
    Sampling rate               : 48.0 kHz
    Frame rate                  : 46.875 FPS (1024 SPF)
    Compression mode            : Lossy
    Delay relative to video     : 9 ms
    Stream size                 : 154 MiB (0%)
    Title                       : commentary
    Language                    : English
    Default                     : No
    Forced                      : No
    
    Audio #4
    ID                          : 5
    Format                      : AAC LC
    Format/Info                 : Advanced Audio Codec Low Complexity
    Codec ID                    : A_AAC-2
    Duration                    : 2 h 56 min
    Bit rate                    : 121 kb/s
    Channel(s)                  : 2 channels
    Channel layout              : L R
    Sampling rate               : 48.0 kHz
    Frame rate                  : 46.875 FPS (1024 SPF)
    Compression mode            : Lossy
    Delay relative to video     : 9 ms
    Stream size                 : 153 MiB (0%)
    Title                       : commentary
    Language                    : English
    Default                     : No
    Forced                      : No
    
    Text #1
    ID                          : 6
    ID in the original source m : 4768 (0x12A0)
    Format                      : PGS
    Muxing mode                 : zlib
    Codec ID                    : S_HDMV/PGS
    Codec ID/Info               : Picture based subtitle format used on BDs/HD-DVDs
    Duration                    : 2 h 55 min
    Bit rate                    : 34.3 kb/s
    Count of elements           : 4834
    Stream size                 : 43.1 MiB (0%)
    Language                    : English
    Default                     : No
    Forced                      : No
    Original source medium      : Blu-ray
    
    Text #2
    ID                          : 7
    ID in the original source m : 4769 (0x12A1)
    Format                      : PGS
    Muxing mode                 : zlib
    Codec ID                    : S_HDMV/PGS
    Codec ID/Info               : Picture based subtitle format used on BDs/HD-DVDs
    Duration                    : 2 h 54 min
    Bit rate                    : 21.7 kb/s
    Count of elements           : 3548
    Stream size                 : 27.1 MiB (0%)
    Language                    : French
    Default                     : No
    Forced                      : No
    Original source medium      : Blu-ray
    
    Text #3
    ID                          : 8
    ID in the original source m : 4770 (0x12A2)
    Format                      : PGS
    Muxing mode                 : zlib
    Codec ID                    : S_HDMV/PGS
    Codec ID/Info               : Picture based subtitle format used on BDs/HD-DVDs
    Duration                    : 2 h 55 min
    Bit rate                    : 35.2 kb/s
    Count of elements           : 3728
    Stream size                 : 44.3 MiB (0%)
    Language                    : German
    Default                     : No
    Forced                      : No
    Original source medium      : Blu-ray
    
    Text #4
    ID                          : 9
    ID in the original source m : 4771 (0x12A3)
    Format                      : PGS
    Muxing mode                 : zlib
    Codec ID                    : S_HDMV/PGS
    Codec ID/Info               : Picture based subtitle format used on BDs/HD-DVDs
    Duration                    : 2 h 55 min
    Bit rate                    : 34.2 kb/s
    Count of elements           : 5026
    Stream size                 : 43.0 MiB (0%)
    Language                    : Italian
    Default                     : No
    Forced                      : No
    Original source medium      : Blu-ray
    
    Text #5
    ID                          : 10
    ID in the original source m : 4772 (0x12A4)
    Format                      : PGS
    Muxing mode                 : zlib
    Codec ID                    : S_HDMV/PGS
    Codec ID/Info               : Picture based subtitle format used on BDs/HD-DVDs
    Duration                    : 2 h 54 min
    Bit rate                    : 27.4 kb/s
    Count of elements           : 3854
    Stream size                 : 34.2 MiB (0%)
    Language                    : Spanish
    Default                     : No
    Forced                      : No
    Original source medium      : Blu-ray
    
    Text #6
    ID                          : 11
    ID in the original source m : 4773 (0x12A5)
    Format                      : PGS
    Muxing mode                 : zlib
    Codec ID                    : S_HDMV/PGS
    Codec ID/Info               : Picture based subtitle format used on BDs/HD-DVDs
    Duration                    : 2 h 53 min
    Bit rate                    : 22.2 kb/s
    Count of elements           : 2518
    Stream size                 : 27.6 MiB (0%)
    Language                    : Danish
    Default                     : No
    Forced                      : No
    Original source medium      : Blu-ray
    
    Text #7
    ID                          : 12
    ID in the original source m : 4774 (0x12A6)
    Format                      : PGS
    Muxing mode                 : zlib
    Codec ID                    : S_HDMV/PGS
    Codec ID/Info               : Picture based subtitle format used on BDs/HD-DVDs
    Duration                    : 2 h 54 min
    Bit rate                    : 28.2 kb/s
    Count of elements           : 3880
    Stream size                 : 35.2 MiB (0%)
    Language                    : Finnish
    Default                     : No
    Forced                      : No
    Original source medium      : Blu-ray
    
    Text #8
    ID                          : 13
    ID in the original source m : 4775 (0x12A7)
    Format                      : PGS
    Muxing mode                 : zlib
    Codec ID                    : S_HDMV/PGS
    Codec ID/Info               : Picture based subtitle format used on BDs/HD-DVDs
    Duration                    : 2 h 54 min
    Bit rate                    : 24.0 kb/s
    Count of elements           : 3108
    Stream size                 : 30.0 MiB (0%)
    Language                    : Norwegian
    Default                     : No
    Forced                      : No
    Original source medium      : Blu-ray
    
    Text #9
    ID                          : 14
    ID in the original source m : 4776 (0x12A8)
    Format                      : PGS
    Muxing mode                 : zlib
    Codec ID                    : S_HDMV/PGS
    Codec ID/Info               : Picture based subtitle format used on BDs/HD-DVDs
    Duration                    : 2 h 54 min
    Bit rate                    : 23.3 kb/s
    Count of elements           : 2800
    Stream size                 : 29.0 MiB (0%)
    Language                    : Swedish
    Default                     : No
    Forced                      : No
    Original source medium      : Blu-ray
    
    Text #10
    ID                          : 15
    ID in the original source m : 4777 (0x12A9)
    Format                      : PGS
    Muxing mode                 : zlib
    Codec ID                    : S_HDMV/PGS
    Codec ID/Info               : Picture based subtitle format used on BDs/HD-DVDs
    Duration                    : 2 h 42 min
    Bit rate                    : 952 b/s
    Count of elements           : 104
    Stream size                 : 1.11 MiB (0%)
    Language                    : French
    Default                     : No
    Forced                      : No
    Original source medium      : Blu-ray
    
    Text #11
    ID                          : 16
    ID in the original source m : 4778 (0x12AA)
    Format                      : PGS
    Muxing mode                 : zlib
    Codec ID                    : S_HDMV/PGS
    Codec ID/Info               : Picture based subtitle format used on BDs/HD-DVDs
    Duration                    : 1 h 47 min
    Bit rate                    : 750 b/s
    Count of elements           : 62
    Stream size                 : 589 KiB (0%)
    Language                    : German
    Default                     : No
    Forced                      : No
    Original source medium      : Blu-ray
    
    Text #12
    ID                          : 17
    ID in the original source m : 4779 (0x12AB)
    Format                      : PGS
    Muxing mode                 : zlib
    Codec ID                    : S_HDMV/PGS
    Codec ID/Info               : Picture based subtitle format used on BDs/HD-DVDs
    Duration                    : 2 h 50 min
    Bit rate                    : 1 371 b/s
    Count of elements           : 190
    Stream size                 : 1.67 MiB (0%)
    Language                    : Italian
    Default                     : No
    Forced                      : No
    Original source medium      : Blu-ray
    
    Text #13
    ID                          : 18
    ID in the original source m : 4780 (0x12AC)
    Format                      : PGS
    Muxing mode                 : zlib
    Codec ID                    : S_HDMV/PGS
    Codec ID/Info               : Picture based subtitle format used on BDs/HD-DVDs
    Duration                    : 2 h 42 min
    Bit rate                    : 681 b/s
    Count of elements           : 86
    Stream size                 : 812 KiB (0%)
    Language                    : Spanish
    Default                     : No
    Forced                      : No
    Original source medium      : Blu-ray
    
    Menu
    00:00:00.000                : en:Chapter 01
    00:12:01.220                : en:Chapter 02
    00:23:21.691                : en:Chapter 03
    00:31:53.870                : en:Chapter 04
    00:41:44.418                : en:Chapter 05
    00:51:36.718                : en:Chapter 06
    01:00:12.942                : en:Chapter 07
    01:10:32.436                : en:Chapter 08
    01:18:35.168                : en:Chapter 09
    01:29:14.599                : en:Chapter 10
    01:42:33.188                : en:Chapter 11
    01:52:16.938                : en:Chapter 12
    01:58:21.260                : en:Chapter 13
    02:09:40.022                : en:Chapter 14
    02:21:14.507                : en:Chapter 15
    02:27:31.384                : en:Chapter 16
    02:38:36.173                : en:Chapter 17
    02:46:58.133                : en:Chapter 18
    Download - Mirror 1:
    Download - Mirror 2:
     
  2. Loading...


Share This Page