Google Drive The.Batman.2022.2160p.WEB-DL.DDP5.1.Atmos.DV.H.265-EVO

Discussion in 'Web-DL / Webrip | 4K' started by DDLbase, Apr 18, 2022.

  1. DDLbase

    DDLbase Administrator Staff Member

    [​IMG]

    Rating: 8.3/10 based on 330,654 user ratings

    Genres: Action, Crime, Drama

    When the Riddler, a sadistic serial killer, begins murdering key political figures in Gotham, Batman is forced to investigate the city's hidden corruption and question his family's involvement.

    [​IMG]
    Code:
    General
    Unique ID                   : 76305367153076346535908416944350955574 (0x3967E11016ED5EAA5F4144B5C6380836)
    Complete name               : The.Batman.2022.2160p.WEB-DL.DDP5.1.Atmos.DV.H.265-EVO.mkv
    Format                      : Matroska
    Format version              : Version 4
    File size                   : 18.9 GiB
    Duration                    : 2 h 56 min
    Overall bit rate            : 15.4 Mb/s
    Encoded date                : UTC 2022-04-17 23:09:49
    Writing application         : mkvmerge v63.0.0 ('Everything') 64-bit
    Writing library             : libebml v1.4.2 + libmatroska v1.6.4
    
    Video
    ID                          : 1
    Format                      : HEVC
    Format/Info                 : High Efficiency Video Coding
    Format profile              : Main [email protected]@High
    HDR format                  : Dolby Vision, Version 1.0, dvhe.05.06, BL+RPU
    Codec ID                    : V_MPEGH/ISO/HEVC
    Duration                    : 2 h 56 min
    Bit rate                    : 14.6 Mb/s
    Width                       : 3 840 pixels
    Height                      : 1 606 pixels
    Display aspect ratio        : 2.40:1
    Frame rate mode             : Constant
    Frame rate                  : 23.976 (24000/1001) FPS
    Color space                 : YUV
    Chroma subsampling          : 4:2:0
    Bit depth                   : 10 bits
    Bits/(Pixel*Frame)          : 0.099
    Stream size                 : 18.0 GiB (95%)
    Default                     : Yes
    Forced                      : No
    
    Audio
    ID                          : 2
    Format                      : E-AC-3 JOC
    Format/Info                 : Enhanced AC-3 with Joint Object Coding
    Commercial name             : Dolby Digital Plus with Dolby Atmos
    Codec ID                    : A_EAC3
    Duration                    : 2 h 56 min
    Bit rate mode               : Constant
    Bit rate                    : 768 kb/s
    Channel(s)                  : 6 channels
    Channel layout              : L R C LFE Ls Rs
    Sampling rate               : 48.0 kHz
    Frame rate                  : 31.250 FPS (1536 SPF)
    Compression mode            : Lossy
    Stream size                 : 968 MiB (5%)
    Language                    : English
    Service kind                : Complete Main
    Default                     : Yes
    Forced                      : No
    Complexity index            : 16
    Number of dynamic objects   : 15
    Bed channel count           : 1 channel
    Bed channel configuration   : LFE
    Download - Mirror 1:
    Download - Mirror 2:
     
  2. Loading...


Share This Page