Google Drive The.Broken.Circle.Breakdown.2012.1080p.BluRay.x264-VeDeTT

Discussion in 'BDRip | 720p/1080p' started by DDLbase, Apr 18, 2021.

  1. DDLbase

    DDLbase Administrator Staff Member

    [​IMG]

    Rating: 7.7/10 based on 39,726 user ratings

    Genres: Drama, Music, Romance

    Elise and Didier fall in love at first sight, in spite of their differences. He talks, she listens. He’s a romantic atheist, she’s a religious realist. When their daughter becomes seriously ill, their love is put on trial.

    [​IMG]
    Code:
    General
    Unique ID                   : 184746247694477143870188312985115244853 (0x8AFCD5431446FB0E8420A5456E9B3935)
    Complete name               : The.Broken.Circle.Breakdown.2012.1080p.BluRay.x264-VeDeTT.mkv
    Format                      : Matroska
    Format version              : Version 4
    File size                   : 7.64 GiB
    Duration                    : 1 h 51 min
    Overall bit rate            : 9 807 kb/s
    Encoded date                : UTC 2013-04-24 11:45:27
    Writing application         : mkvmerge v6.1.0 ('Old Devil') built on Mar  2 2013 14:32:37
    Writing library             : libebml v1.3.0 + libmatroska v1.4.0
    
    Video
    ID                          : 1
    Format                      : AVC
    Format/Info                 : Advanced Video Codec
    Format profile              : [email protected]
    Format settings             : CABAC / 5 Ref Frames
    Format settings, CABAC      : Yes
    Format settings, Reference  : 5 frames
    Codec ID                    : V_MPEG4/ISO/AVC
    Duration                    : 1 h 51 min
    Bit rate                    : 8 302 kb/s
    Width                       : 1 920 pixels
    Height                      : 816 pixels
    Display aspect ratio        : 2.35:1
    Frame rate mode             : Constant
    Frame rate                  : 24.000 FPS
    Color space                 : YUV
    Chroma subsampling          : 4:2:0
    Bit depth                   : 8 bits
    Scan type                   : Progressive
    Bits/(Pixel*Frame)          : 0.221
    Stream size                 : 6.32 GiB (83%)
    Writing library             : x264 core 130 r2273 b3065e6
    Encoding settings           : cabac=1 / ref=5 / deblock=1:0:0 / analyse=0x3:0x133 / me=umh / subme=7 / psy=1 / psy_rd=1.00:0.00 / mixed_ref=1 / me_range=16 / chroma_me=1 / trellis=1 / 8x8dct=1 / cqm=0 / deadzone=21,11 / fast_pskip=0 / chroma_qp_offset=-2 / threads=6 / lookahead_threads=1 / sliced_threads=0 / nr=0 / decimate=1 / interlaced=0 / bluray_compat=0 / constrained_intra=0 / bframes=3 / b_pyramid=2 / b_adapt=2 / b_bias=0 / direct=3 / weightb=1 / open_gop=0 / weightp=2 / keyint=250 / keyint_min=24 / scenecut=40 / intra_refresh=0 / rc_lookahead=50 / rc=2pass / mbtree=1 / bitrate=8302 / ratetol=1.0 / qcomp=0.60 / qpmin=0 / qpmax=69 / qpstep=4 / cplxblur=20.0 / qblur=0.5 / ip_ratio=1.40 / aq=1:1.00
    Language                    : Dutch
    Default                     : Yes
    Forced                      : Yes
    
    Audio
    ID                          : 2
    Format                      : DTS
    Format/Info                 : Digital Theater Systems
    Codec ID                    : A_DTS
    Duration                    : 1 h 51 min
    Bit rate mode               : Constant
    Bit rate                    : 1 509 kb/s
    Channel(s)                  : 6 channels
    Channel layout              : C L R Ls Rs LFE
    Sampling rate               : 48.0 kHz
    Frame rate                  : 93.750 FPS (512 SPF)
    Bit depth                   : 24 bits
    Compression mode            : Lossy
    Stream size                 : 1.18 GiB (15%)
    Language                    : Dutch
    Default                     : Yes
    Forced                      : Yes
    
    Text
    ID                          : 3
    Format                      : UTF-8
    Codec ID                    : S_TEXT/UTF8
    Codec ID/Info               : UTF-8 Plain Text
    Language                    : English
    Default                     : Yes
    Forced                      : Yes
    
    Menu
    00:00:00.000                : en:00:00:00.000
    00:09:36.042                : en:00:09:36.042
    00:19:59.333                : en:00:19:59.333
    00:30:24.375                : en:00:30:24.375
    00:39:19.208                : en:00:39:19.208
    00:47:23.083                : en:00:47:23.083
    00:57:40.417                : en:00:57:40.417
    01:09:12.125                : en:01:09:12.125
    01:19:57.625                : en:01:19:57.625
    01:32:44.375                : en:01:32:44.375
    01:43:38.917                : en:01:43:38.917
    Download - Mirror 1:
    Download - Mirror 2:
     
  2. Loading...


Share This Page