Google Drive The.Bygone.2019.1080p.WEB-DL.H264.AC3-EVO

Discussion in 'Web-DL / Webrip | 1080p' started by DDLbase, Nov 13, 2019.

  1. DDLbase

    DDLbase Administrator Staff Member

    [​IMG]
    [​IMG]
    Code:
    General
    Unique ID                   : 50422023571952297349356588081022296650 (0x25EEEDB2875AB3AA1E6127A2D76CE24A)
    Complete name               : The.Bygone.2019.1080p.WEB-DL.H264.AC3-EVO.mkv
    Format                      : Matroska
    Format version              : Version 4
    File size                   : 3.67 GiB
    Duration                    : 1 h 46 min
    Overall bit rate            : 4 941 kb/s
    Encoded date                : UTC 2019-11-12 05:52:23
    Writing application         : mkvmerge v35.0.0 ('All The Love In The World') 64-bit
    Writing library             : libebml v1.3.9 + libmatroska v1.5.2
    
    Video
    ID                          : 3
    Format                      : AVC
    Format/Info                 : Advanced Video Codec
    Format profile              : [email protected]
    Format settings             : CABAC / 5 Ref Frames
    Format settings, CABAC      : Yes
    Format settings, ReFrames   : 5 frames
    Codec ID                    : V_MPEG4/ISO/AVC
    Duration                    : 1 h 46 min
    Bit rate                    : 4 555 kb/s
    Width                       : 1 912 pixels
    Height                      : 804 pixels
    Display aspect ratio        : 2.40:1
    Frame rate mode             : Constant
    Frame rate                  : 24.000 FPS
    Color space                 : YUV
    Chroma subsampling          : 4:2:0
    Bit depth                   : 8 bits
    Scan type                   : Progressive
    Bits/(Pixel*Frame)          : 0.123
    Stream size                 : 3.38 GiB (92%)
    Language                    : English
    Default                     : Yes
    Forced                      : No
    Color range                 : Limited
    Color primaries             : BT.709
    Transfer characteristics    : BT.709
    Matrix coefficients         : BT.709
    
    Audio
    ID                          : 2
    Format                      : AC-3
    Format/Info                 : Audio Coding 3
    Commercial name             : Dolby Digital
    Codec ID                    : A_AC3
    Duration                    : 1 h 46 min
    Bit rate mode               : Constant
    Bit rate                    : 384 kb/s
    Channel(s)                  : 6 channels
    Channel layout              : L R C LFE Ls Rs
    Sampling rate               : 48.0 kHz
    Frame rate                  : 31.250 FPS (1536 SPF)
    Bit depth                   : 16 bits
    Compression mode            : Lossy
    Delay relative to video     : -42 ms
    Stream size                 : 292 MiB (8%)
    Language                    : English
    Service kind                : Complete Main
    Default                     : Yes
    Forced                      : No
    
    Text
    ID                          : 1
    Format                      : UTF-8
    Codec ID                    : S_TEXT/UTF8
    Codec ID/Info               : UTF-8 Plain Text
    Duration                    : 1 h 44 min
    Bit rate                    : 48 b/s
    Count of elements           : 1019
    Stream size                 : 36.9 KiB (0%)
    Language                    : English
    Default                     : Yes
    Forced                      : No
    
    Menu
    00:00:00.000                : en:Chapter 1
    00:09:40.580                : en:Chapter 2
    00:20:19.218                : en:Chapter 3
    00:29:14.753                : en:Chapter 4
    00:39:29.367                : en:Chapter 5
    00:51:57.113                : en:Chapter 6
    00:59:40.576                : en:Chapter 7
    01:08:27.101                : en:Chapter 8
    01:13:25.398                : en:Chapter 9
    01:21:19.872                : en:Chapter 10
    01:32:48.560                : en:Chapter 11
    01:41:32.083                : en:Chapter 12
    Download:
     
  2. Loading...


Share This Page