Google Drive The.Card.Counter.2021.1080p.BluRay.x264-PiGNUS

Discussion in 'BDRip | 720p/1080p' started by DDLbase, Dec 16, 2021.

  1. DDLbase

    DDLbase Administrator Staff Member

    [​IMG]

    Rating: 6.2/10 based on 14.472 user ratings

    Genres: Crime, Drama, Thriller

    Redemption is the long game in Paul Schrader's THE CARD COUNTER. Told with Schrader's trademark cinematic intensity, the revenge thriller tells the story of an ex-military interrogator turned gambler haunted by the ghosts of his past.

    [​IMG]
    Code:
    General
    Unique ID                   : 339704849272506067059395099924142166805 (0xFF90C62E7B31819A3AFE956F77331315)
    Complete name               : The.Card.Counter.2021.1080p.BluRay.x264-PiGNUS.mkv
    Format                      : Matroska
    Format version              : Version 4
    File size                   : 12.0 GiB
    Duration                    : 1 h 51 min
    Overall bit rate mode       : Variable
    Overall bit rate            : 15.5 Mb/s
    Encoded date                : UTC 2021-12-15 20:37:09
    Writing application         : mkvmerge v62.0.0 ('Apollo') 64-bit
    Writing library             : libebml v1.4.2 + libmatroska v1.6.4
    
    Video
    ID                          : 1
    Format                      : AVC
    Format/Info                 : Advanced Video Codec
    Format profile              : [email protected]
    Format settings             : CABAC / 4 Ref Frames
    Format settings, CABAC      : Yes
    Format settings, Reference  : 4 frames
    Codec ID                    : V_MPEG4/ISO/AVC
    Duration                    : 1 h 51 min
    Bit rate                    : 12.0 Mb/s
    Width                       : 1 800 pixels
    Height                      : 1 080 pixels
    Display aspect ratio        : 5:3
    Frame rate mode             : Constant
    Frame rate                  : 23.976 (24000/1001) FPS
    Color space                 : YUV
    Chroma subsampling          : 4:2:0
    Bit depth                   : 8 bits
    Scan type                   : Progressive
    Bits/(Pixel*Frame)          : 0.258
    Stream size                 : 9.37 GiB (78%)
    Writing library             : x264 core 164 r3079 d9a19f0
    Encoding settings           : cabac=1 / ref=4 / deblock=1:-3:-3 / analyse=0x3:0x133 / me=umh / subme=9 / psy=1 / psy_rd=1.00:0.00 / mixed_ref=1 / me_range=16 / chroma_me=1 / trellis=2 / 8x8dct=1 / cqm=0 / deadzone=21,11 / fast_pskip=1 / chroma_qp_offset=-2 / threads=34 / lookahead_threads=2 / sliced_threads=0 / nr=0 / decimate=1 / interlaced=0 / bluray_compat=0 / constrained_intra=0 / bframes=3 / b_pyramid=2 / b_adapt=2 / b_bias=0 / direct=3 / weightb=1 / open_gop=0 / weightp=2 / keyint=250 / keyint_min=23 / scenecut=40 / intra_refresh=0 / rc_lookahead=60 / rc=crf / mbtree=1 / crf=15.5 / qcomp=0.60 / qpmin=0 / qpmax=69 / qpstep=4 / ip_ratio=1.40 / aq=1:1.00
    Default                     : Yes
    Forced                      : No
    
    Audio
    ID                          : 2
    Format                      : DTS XLL
    Format/Info                 : Digital Theater Systems
    Commercial name             : DTS-HD Master Audio
    Codec ID                    : A_DTS
    Duration                    : 1 h 51 min
    Bit rate mode               : Variable
    Bit rate                    : 3 391 kb/s
    Channel(s)                  : 6 channels
    Channel layout              : C L R Ls Rs LFE
    Sampling rate               : 48.0 kHz
    Frame rate                  : 93.750 FPS (512 SPF)
    Bit depth                   : 24 bits
    Compression mode            : Lossless
    Stream size                 : 2.64 GiB (22%)
    Language                    : English
    Default                     : Yes
    Forced                      : No
    
    Text #1
    ID                          : 3
    Format                      : PGS
    Muxing mode                 : zlib
    Codec ID                    : S_HDMV/PGS
    Codec ID/Info               : Picture based subtitle format used on BDs/HD-DVDs
    Duration                    : 1 h 47 min
    Bit rate                    : 36.8 kb/s
    Count of elements           : 2631
    Stream size                 : 28.3 MiB (0%)
    Title                       : English SDH
    Language                    : English
    Default                     : No
    Forced                      : No
    
    Text #2
    ID                          : 4
    Format                      : PGS
    Muxing mode                 : zlib
    Codec ID                    : S_HDMV/PGS
    Codec ID/Info               : Picture based subtitle format used on BDs/HD-DVDs
    Duration                    : 1 h 49 min
    Bit rate                    : 29.7 kb/s
    Count of elements           : 2350
    Stream size                 : 23.3 MiB (0%)
    Title                       : Spanish
    Language                    : Spanish
    Default                     : No
    Forced                      : No
    
    Text #3
    ID                          : 5
    Format                      : PGS
    Muxing mode                 : zlib
    Codec ID                    : S_HDMV/PGS
    Codec ID/Info               : Picture based subtitle format used on BDs/HD-DVDs
    Duration                    : 1 h 33 min
    Bit rate                    : 128 b/s
    Count of elements           : 6
    Stream size                 : 88.7 KiB (0%)
    Title                       : Spanish
    Language                    : Spanish
    Default                     : No
    Forced                      : No
    
    Menu
    00:00:00.000                : en:Chapter 01
    00:05:20.487                : en:Chapter 02
    00:09:02.041                : en:Chapter 03
    00:16:36.204                : en:Chapter 04
    00:20:18.092                : en:Chapter 05
    00:23:23.819                : en:Chapter 06
    00:31:04.404                : en:Chapter 07
    00:37:41.176                : en:Chapter 08
    00:43:58.803                : en:Chapter 09
    00:48:45.172                : en:Chapter 10
    00:54:17.713                : en:Chapter 11
    01:00:18.615                : en:Chapter 12
    01:07:48.481                : en:Chapter 13
    01:13:34.201                : en:Chapter 14
    01:18:26.744                : en:Chapter 15
    01:21:35.766                : en:Chapter 16
    01:28:04.613                : en:Chapter 17
    01:32:26.666                : en:Chapter 18
    01:38:31.739                : en:Chapter 19
    01:46:18.163                : en:Chapter 20
    01:51:29.266                : en:Chapter 21
    Download - Mirror 1:
    Download - Mirror 2:
     
  2. Loading...


Share This Page