Google Drive The Conjuring 2 (2016) BluRay 1080p TrueHD Atmos 7.1 AVC REMUX - FraMeSToR

Discussion in 'BD REMUX | 1080p' started by DDLbase, Nov 1, 2019.

  1. DDLbase

    DDLbase Administrator Staff Member

    [​IMG]

    The Conjuring 2 (2016)

    [​IMG] 7.3/10 [​IMG] 203,037

    Plot Summary

    The Conjuring 2  is a 2016 American supernatural horror film, directed by James Wan. The screenplay is by Chad Hayes, Carey W. Hayes, Wan, and David Leslie Johnson. It is the sequel to 2013's The Conjuring, the second installment in The Conjuring series, and the third installment in the Conjuring Universe franchise. Patrick Wilson and Vera Farmiga reprise their roles as paranormal investigators and authors Ed and Lorraine Warren from the first film. The film follows the Warrens as they travel to Britain to assist the Hodgson family, who are experiencing poltergeist activity at their Enfield council house in 1977 which later became referred to as the Enfield poltergeist.

    In July 2013, before the release of the first film, it was reported that New Line Cinema was already developing a sequel with both Farmiga and Wilson signed on to reprise their roles. By October 2014, it was announced that Wan would return to direct the sequel and would make his first contribution as a writer in the franchise. Principal photography began in September 2015 in Los Angeles and concluded in December 2015 in London.

    The Conjuring 2 had its world premiere at TCL Chinese Theatre on June 7, 2016, and was theatrically released in the United States on June 10, 2016, by Warner Bros. Pictures and New Line Cinema. The film received generally positive reviews from critics—who praised the performances, Wan's direction, screenplay, atmosphere and Joseph Bishara's musical score—and grossed over $320 million worldwide. A spin-off prequel, The Nun, was released on September 7, 2018. A sequel, The Conjuring 3, is currently in production.

    Movie Info
    • Rating: R
    • Genre: Horror, Mystery, Thriller
    • Directed By: James Wan
    • Written By: Chad Hayes (screenplay by), Carey W. Hayes (screenplay by), James Wan (screenplay by), David Leslie Johnson-McGoldrick (screenplay by), Chad Hayes (story by), Carey W. Hayes (story by), James Wan (story by), Chad Hayes (based on characters created by), Carey W. Hayes (based on characters created by)
    • Starring: Patrick Wilson, Vera Farmiga, Madison Wolfe, Frances O'Connor
    • Release Date: 10 Jun 2016
    • Runtime: 134 min
    • On Disk/Streaming: 13 Sep 2016
    • Box Office (USA): $102,461,593
    • Awards: 4 wins & 13 nominations.
    • Studio: Warner Bros. Pictures
    [​IMG]
    [​IMG]
    [​IMG]
    [​IMG]
    [​IMG]
    [​IMG]
    [​IMG]
    [​IMG]
    [​IMG]
    [​IMG]
    [​IMG]
    [​IMG]

    Code:
    General
    Unique ID                                : 91862110850065020810879233093996040273 (0x451BFFBEBB2AE9E9F7F3754FEA4ED051)
    Complete name                            : The.Conjuring.2.2016.BluRay.1080p.TrueHD.Atmos.7.1.AVC.REMUX-FraMeSToR.mkv
    Format                                   : Matroska
    Format version                           : Version 4 / Version 2
    File size                                : 25.3 GiB
    Duration                                 : 2 h 13 min
    Overall bit rate mode                    : Variable
    Overall bit rate                         : 27.1 Mb/s
    Movie name                               : The Conjuring 2
    Encoded date                             : UTC 2016-08-30 02:03:20
    Writing application                      : mkvmerge v9.4.0 ('Knurl') 64bit
    Writing library                          : libebml v1.3.4 + libmatroska v1.4.5
    
    Video
    ID                                       : 1
    Format                                   : AVC
    Format/Info                              : Advanced Video Codec
    Format profile                           : [email protected]
    Format settings                          : CABAC / 2 Ref Frames
    Format settings, CABAC                   : Yes
    Format settings, ReFrames                : 2 frames
    Codec ID                                 : V_MPEG4/ISO/AVC
    Duration                                 : 2 h 13 min
    Bit rate mode                            : Variable
    Bit rate                                 : 22.5 Mb/s
    Width                                    : 1 920 pixels
    Height                                   : 1 080 pixels
    Display aspect ratio                     : 16:9
    Frame rate mode                          : Constant
    Frame rate                               : 23.976 (24000/1001) FPS
    Color space                              : YUV
    Chroma subsampling                       : 4:2:0
    Bit depth                                : 8 bits
    Scan type                                : Progressive
    Bits/(Pixel*Frame)                       : 0.453
    Stream size                              : 21.1 GiB (83%)
    Default                                  : Yes
    Forced                                   : No
    
    Audio #1
    ID                                       : 2
    Format                                   : TrueHD
    Format profile                           : TrueHD+Atmos / TrueHD
    Codec ID                                 : A_TRUEHD
    Duration                                 : 2 h 13 min
    Bit rate mode                            : Variable
    Bit rate                                 : 3 987 kb/s
    Maximum bit rate                         : 8 076 kb/s
    Channel(s)                               : Object Based / 8 channels
    Channel positions                        : Object Based / Front: L C R, Side: L R, Back: L R, LFE
    Sampling rate                            :  / 48.0 kHz
    Frame rate                               : 1 200.000 FPS (40 SPF)
    Compression mode                         : Lossless
    Stream size                              : 3.73 GiB (15%)
    Title                                    : TrueHD Atmos 7.1
    Language                                 : English
    Default                                  : Yes
    Forced                                   : No
    
    Audio #2
    ID                                       : 3
    Format                                   : AC-3
    Format/Info                              : Audio Coding 3
    Codec ID                                 : A_AC3
    Duration                                 : 2 h 13 min
    Bit rate mode                            : Constant
    Bit rate                                 : 384 kb/s
    Channel(s)                               : 6 channels
    Channel positions                        : Front: L C R, Side: L R, LFE
    Sampling rate                            : 48.0 kHz
    Frame rate                               : 31.250 FPS (1536 SPF)
    Bit depth                                : 16 bits
    Compression mode                         : Lossy
    Stream size                              : 368 MiB (1%)
    Title                                    : AC3 5.1-EX
    Language                                 : English
    Service kind                             : Complete Main
    Default                                  : No
    Forced                                   : No
    
    Text #1
    ID                                       : 4
    Format                                   : PGS
    Codec ID                                 : S_HDMV/PGS
    Codec ID/Info                            : Picture based subtitle format used on BDs/HD-DVDs
    Duration                                 : 2 h 13 min
    Bit rate                                 : 31.7 kb/s
    Count of elements                        : 3486
    Stream size                              : 30.2 MiB (0%)
    Title                                    : English (SDH)
    Language                                 : English
    Default                                  : Yes
    Forced                                   : No
    
    Text #2
    ID                                       : 5
    Format                                   : PGS
    Codec ID                                 : S_HDMV/PGS
    Codec ID/Info                            : Picture based subtitle format used on BDs/HD-DVDs
    Duration                                 : 2 h 13 min
    Bit rate                                 : 23.4 kb/s
    Count of elements                        : 3076
    Stream size                              : 22.3 MiB (0%)
    Title                                    : French
    Language                                 : French
    Default                                  : No
    Forced                                   : No
    
    Text #3
    ID                                       : 6
    Format                                   : PGS
    Codec ID                                 : S_HDMV/PGS
    Codec ID/Info                            : Picture based subtitle format used on BDs/HD-DVDs
    Duration                                 : 2 h 13 min
    Bit rate                                 : 24.9 kb/s
    Count of elements                        : 2816
    Stream size                              : 23.7 MiB (0%)
    Title                                    : Spanish (Latin American)
    Language                                 : Spanish
    Default                                  : No
    Forced                                   : No
    
    Text #4
    ID                                       : 7
    Format                                   : PGS
    Codec ID                                 : S_HDMV/PGS
    Codec ID/Info                            : Picture based subtitle format used on BDs/HD-DVDs
    Duration                                 : 2 h 13 min
    Bit rate                                 : 24.2 kb/s
    Count of elements                        : 2822
    Stream size                              : 23.0 MiB (0%)
    Title                                    : Portuguese (Brazilian)
    Language                                 : Portuguese
    Default                                  : No
    Forced                                   : No
    
    Menu
    00:00:00.000                             : en:Chapter 1
    00:08:24.670                             : en:Chapter 2
    00:18:40.702                             : en:Chapter 3
    00:28:34.212                             : en:Chapter 4
    00:40:01.399                             : en:Chapter 5
    00:48:46.840                             : en:Chapter 6
    01:02:14.313                             : en:Chapter 7
    01:09:29.665                             : en:Chapter 8
    01:21:55.869                             : en:Chapter 9
    01:29:26.486                             : en:Chapter 10
    01:38:53.469                             : en:Chapter 11
    01:48:15.363                             : en:Chapter 12
    02:03:10.508                             : en:Chapter 13
    02:07:36.815                             : en:Chapter 14
    Download:
     
  2. Loading...


Share This Page