Google Drive The.Courier.2021.2160p.WEB-DL.DDP5.1.HDR.HEVC-EVO

Discussion in 'Web-DL / Webrip | 4K' started by DDLbase, Apr 16, 2021.

  1. DDLbase

    DDLbase Administrator Staff Member

    [​IMG]

    Rating: 7.3/10 based on 2,175 user ratings

    Genre: Thriller

    Cold War spy Greville Wynne and his Russian source try to put an end to the Cuban Missile Crisis.

    [​IMG]
    Code:
    General
    Unique ID                   : 261400608310919299153318097031970428294 (0xC4A7ED07F5A848644C0EAD20A9581586)
    Complete name               : The.Courier.2021.2160p.WEB-DL.DDP5.1.HDR.HEVC-EVO.mkv
    Format                      : Matroska
    Format version              : Version 4
    File size                   : 11.6 GiB
    Duration                    : 1 h 52 min
    Overall bit rate            : 14.8 Mb/s
    Encoded date                : UTC 2021-04-16 05:14:30
    Writing application         : mkvmerge v35.0.0 ('All The Love In The World') 64-bit
    Writing library             : libebml v1.3.9 + libmatroska v1.5.2
    
    Video
    ID                          : 1
    Format                      : HEVC
    Format/Info                 : High Efficiency Video Coding
    Format profile              : Main [email protected]@Main
    HDR format                  : SMPTE ST 2086, HDR10 compatible
    Codec ID                    : V_MPEGH/ISO/HEVC
    Duration                    : 1 h 52 min
    Bit rate                    : 14.6 Mb/s
    Width                       : 3 840 pixels
    Height                      : 2 160 pixels
    Display aspect ratio        : 16:9
    Frame rate mode             : Constant
    Frame rate                  : 23.976 (24000/1001) FPS
    Color space                 : YUV
    Chroma subsampling          : 4:2:0 (Type 2)
    Bit depth                   : 10 bits
    Bits/(Pixel*Frame)          : 0.073
    Stream size                 : 11.4 GiB (98%)
    Default                     : Yes
    Forced                      : No
    Color range                 : Limited
    Color primaries             : BT.2020
    Transfer characteristics    : PQ
    Matrix coefficients         : BT.2020 non-constant
    Mastering display color pri : BT.2020
    Mastering display luminance : min: 0.0001 cd/m2, max: 1000 cd/m2
    Maximum Content Light Level : 863 cd/m2
    Maximum Frame-Average Light : 115 cd/m2
    
    Audio
    ID                          : 2
    Format                      : E-AC-3
    Format/Info                 : Enhanced AC-3
    Commercial name             : Dolby Digital Plus
    Codec ID                    : A_EAC3
    Duration                    : 1 h 52 min
    Bit rate mode               : Constant
    Bit rate                    : 256 kb/s
    Channel(s)                  : 6 channels
    Channel layout              : L R C LFE Ls Rs
    Sampling rate               : 48.0 kHz
    Frame rate                  : 31.250 FPS (1536 SPF)
    Compression mode            : Lossy
    Stream size                 : 205 MiB (2%)
    Title                       : English
    Language                    : English
    Service kind                : Complete Main
    Default                     : No
    Forced                      : No
    Download - Mirror 1:
    Download - Mirror 2:
     
  2. Loading...


Share This Page