Google Drive The.Favor.1994.1080p.BluRay.AAC.x264-HANDJOB

Discussion in 'BDRip | 720p/1080p' started by DDLbase, Oct 31, 2022.

New website version: https://ddlbase.com (final revisions being made) New website version: https://ddlbase.com (final revisions being made)
  1. DDLbase

    DDLbase Administrator Staff Member

    [​IMG]

    Rating: 5.2/10 based on 2,936 user ratings

    Genres: Comedy, Romance

    With 15 year reunion coming up, Kathy has sexual fantasies of her high school sweetheart. She’s married, so she sends her BFF to check him out and report back. Things get complicated.

    [​IMG]
    Code:
    General
    Unique ID                   : 169394453388293112846930025698476279293 (0x7F702F5D6DCD9766E0DDF076B521C5FD)
    Complete name               : The.Favor.1994.1080p.BluRay.AAC.x264-HANDJOB.mkv
    Format                      : Matroska
    Format version              : Version 4
    File size                   : 6.09 GiB
    Duration                    : 1 h 37 min
    Overall bit rate            : 8 939 kb/s
    Movie name                  : The Favor [1994] 1080p BluRay - HJ
    Encoded date                : UTC 2022-10-28 04:19:26
    Writing application         : mkvmerge v70.0.0 ('Caught A Lite Sneeze') 64-bit
    Writing library             : libebml v1.4.2 + libmatroska v1.6.4
    
    Video
    ID                          : 1
    Format                      : AVC
    Format/Info                 : Advanced Video Codec
    Format profile              : [email protected]
    Format settings             : CABAC / 4 Ref Frames
    Format settings, CABAC      : Yes
    Format settings, Reference  : 4 frames
    Codec ID                    : V_MPEG4/ISO/AVC
    Duration                    : 1 h 37 min
    Bit rate                    : 8 608 kb/s
    Width                       : 1 920 pixels
    Height                      : 1 040 pixels
    Display aspect ratio        : 1.85:1
    Frame rate mode             : Constant
    Frame rate                  : 23.976 (24000/1001) FPS
    Color space                 : YUV
    Chroma subsampling          : 4:2:0
    Bit depth                   : 8 bits
    Scan type                   : Progressive
    Bits/(Pixel*Frame)          : 0.180
    Stream size                 : 5.87 GiB (96%)
    Writing library             : x264 core 164 r3065 ae03d92
    Encoding settings           : cabac=1 / ref=4 / deblock=1:-3:-3 / analyse=0x3:0x133 / me=umh / subme=11 / psy=1 / psy_rd=1.00:0.00 / mixed_ref=1 / me_range=32 / chroma_me=1 / trellis=2 / 8x8dct=1 / cqm=0 / deadzone=21,11 / fast_pskip=0 / chroma_qp_offset=-2 / threads=24 / lookahead_threads=6 / sliced_threads=0 / nr=0 / decimate=0 / interlaced=0 / bluray_compat=0 / constrained_intra=0 / bframes=16 / b_pyramid=2 / b_adapt=2 / b_bias=0 / direct=3 / weightb=1 / open_gop=0 / weightp=2 / keyint=240 / keyint_min=24 / scenecut=40 / intra_refresh=0 / rc_lookahead=60 / rc=crf / mbtree=0 / crf=19.0 / qcomp=0.60 / qpmin=0 / qpmax=69 / qpstep=4 / vbv_maxrate=62500 / vbv_bufsize=78125 / crf_max=0.0 / nal_hrd=none / filler=0 / ip_ratio=1.40 / pb_ratio=1.30 / aq=2:1.00
    Default                     : Yes
    Forced                      : No
    Color range                 : Limited
    Color primaries             : BT.709
    Transfer characteristics    : BT.709
    Matrix coefficients         : BT.709
    
    Audio
    ID                          : 2
    Format                      : AAC LC
    Format/Info                 : Advanced Audio Codec Low Complexity
    Codec ID                    : A_AAC-2
    Duration                    : 1 h 37 min
    Bit rate                    : 320 kb/s
    Channel(s)                  : 2 channels
    Channel layout              : L R
    Sampling rate               : 48.0 kHz
    Frame rate                  : 46.875 FPS (1024 SPF)
    Compression mode            : Lossy
    Delay relative to video     : 9 ms
    Stream size                 : 223 MiB (4%)
    Language                    : English
    Default                     : Yes
    Forced                      : No
    
    Text #1
    ID                          : 3
    Format                      : UTF-8
    Codec ID                    : S_TEXT/UTF8
    Codec ID/Info               : UTF-8 Plain Text
    Duration                    : 1 h 34 min
    Bit rate                    : 63 b/s
    Frame rate                  : 0.276 FPS
    Count of elements           : 1568
    Stream size                 : 43.8 KiB (0%)
    Language                    : English
    Default                     : No
    Forced                      : No
    
    Text #2
    ID                          : 4
    Format                      : PGS
    Muxing mode                 : zlib
    Codec ID                    : S_HDMV/PGS
    Codec ID/Info               : Picture based subtitle format used on BDs/HD-DVDs
    Duration                    : 1 h 34 min
    Bit rate                    : 32.8 kb/s
    Frame rate                  : 0.518 FPS
    Count of elements           : 2945
    Stream size                 : 22.2 MiB (0%)
    Language                    : English
    Default                     : No
    Forced                      : No
    
    Menu
    00:00:00.000                : en:Chapter 00
    00:10:41.265                : en:Chapter 01
    00:21:19.027                : en:Chapter 02
    00:33:05.024                : en:Chapter 03
    00:46:17.191                : en:Chapter 04
    00:59:59.554                : en:Chapter 05
    01:13:10.177                : en:Chapter 06
    01:23:55.447                : en:Chapter 07
    Download - Mirror 1:
    Download - Mirror 2:
     
  2. Loading...


Share This Page