Google Drive The.First.Time.2012.LIMITED.1080p.BluRay.X264-AMIABLE

Discussion in 'BDRip | 720p/1080p' started by DDLbase, Jun 29, 2020.

  1. DDLbase

    DDLbase Administrator Staff Member

    [​IMG]

    Rating: 6.8/10 based on 64,979 user ratings

    Genres: Comedy, Drama, Romance

    A shy senior and a down-to-earth junior fall in love over one weekend.

    [​IMG]
    Code:
    General
    Complete name               : The.First.Time.2012.LIMITED.1080p.BluRay.X264-AMIABLE.mkv
    Format                      : Matroska
    Format version              : Version 2
    File size                   : 6.55 GiB
    Duration                    : 1 h 35 min
    Overall bit rate            : 9 868 kb/s
    Writing application         : mkvmerge v4.1.1 ('Bouncin' Back') built on Jul  3 2010 22:54:08
    Writing library             : libebml v1.0.0 + libmatroska v1.0
    
    Video
    ID                          : 1
    Format                      : AVC
    Format/Info                 : Advanced Video Codec
    Format profile              : [email protected]
    Format settings             : CABAC / 4 Ref Frames
    Format settings, CABAC      : Yes
    Format settings, Reference  : 4 frames
    Codec ID                    : V_MPEG4/ISO/AVC
    Duration                    : 1 h 35 min
    Bit rate                    : 8 372 kb/s
    Width                       : 1 920 pixels
    Height                      : 1 080 pixels
    Display aspect ratio        : 16:9
    Frame rate mode             : Constant
    Frame rate                  : 24.000 FPS
    Color space                 : YUV
    Chroma subsampling          : 4:2:0
    Bit depth                   : 8 bits
    Scan type                   : Progressive
    Bits/(Pixel*Frame)          : 0.168
    Stream size                 : 5.42 GiB (83%)
    Writing library             : x264 core 133 r2334 a3ac64b
    Encoding settings           : cabac=1 / ref=4 / deblock=1:0:0 / analyse=0x3:0x113 / me=umh / subme=8 / psy=1 / psy_rd=1.00:0.00 / mixed_ref=1 / me_range=16 / chroma_me=1 / trellis=1 / 8x8dct=1 / cqm=0 / deadzone=21,11 / fast_pskip=1 / chroma_qp_offset=-2 / threads=12 / lookahead_threads=2 / sliced_threads=0 / nr=0 / decimate=1 / interlaced=0 / bluray_compat=0 / constrained_intra=0 / bframes=3 / b_pyramid=2 / b_adapt=2 / b_bias=0 / direct=3 / weightb=1 / open_gop=0 / weightp=2 / keyint=240 / keyint_min=24 / scenecut=40 / intra_refresh=0 / rc_lookahead=50 / rc=2pass / mbtree=1 / bitrate=8372 / ratetol=1.0 / qcomp=0.60 / qpmin=0 / qpmax=69 / qpstep=4 / cplxblur=20.0 / qblur=0.5 / ip_ratio=1.40 / aq=1:1.00
    Language                    : English
    Default                     : Yes
    Forced                      : No
    
    Audio
    ID                          : 2
    Format                      : DTS
    Format/Info                 : Digital Theater Systems
    Codec ID                    : A_DTS
    Duration                    : 1 h 35 min
    Bit rate mode               : Constant
    Bit rate                    : 1 509 kb/s
    Channel(s)                  : 6 channels
    Channel layout              : C L R Ls Rs LFE
    Sampling rate               : 48.0 kHz
    Frame rate                  : 93.750 FPS (512 SPF)
    Bit depth                   : 24 bits
    Compression mode            : Lossy
    Stream size                 : 1.00 GiB (15%)
    Language                    : English
    Default                     : Yes
    Forced                      : No
    
    Menu
    00:00:00.000                : en:00:00:00.000
    00:08:42.833                : en:00:08:42.833
    00:13:58.292                : en:00:13:58.292
    00:22:19.083                : en:00:22:19.083
    00:27:43.667                : en:00:27:43.667
    00:33:20.500                : en:00:33:20.500
    00:39:21.000                : en:00:39:21.000
    00:45:14.208                : en:00:45:14.208
    00:49:32.667                : en:00:49:32.667
    00:54:12.875                : en:00:54:12.875
    00:58:36.625                : en:00:58:36.625
    01:02:02.875                : en:01:02:02.875
    01:07:54.042                : en:01:07:54.042
    01:15:28.333                : en:01:15:28.333
    01:23:23.792                : en:01:23:23.792
    01:31:28.125                : en:01:31:28.125
    Download:
     
  2. Loading...


Share This Page