Google Drive The.Forgiven.2021.2160p.WEB-DL.DD5.1.H.265-EVO

Discussion in 'Web-DL / Webrip | 4K' started by DDLbase, Jul 19, 2022.

  1. DDLbase

    DDLbase Administrator Staff Member

    [​IMG]

    Rating: 6.4/10 based on 424 user ratings

    Genres: Drama

    The Forgiven takes place over a weekend in the High Atlas Mountains of Morocco, and explores the reverberations of a random accident on the lives of both the local Muslims, and Western visitors to a house party in a grand villa.

    [​IMG]
    Code:
    General
    Unique ID                   : 194658177564437790231987095585780037813 (0x9271CD22982FAE1A96575B8AD7C278B5)
    Complete name               : The.Forgiven.2021.2160p.WEB-DL.DD5.1.H.265-EVO.mkv
    Format                      : Matroska
    Format version              : Version 4
    File size                   : 10.1 GiB
    Duration                    : 1 h 56 min
    Overall bit rate            : 12.3 Mb/s
    Encoded date                : UTC 2022-07-19 04:12:07
    Writing application         : mkvmerge v63.0.0 ('Everything') 64-bit
    Writing library             : libebml v1.4.2 + libmatroska v1.6.4
    
    Video
    ID                          : 1
    Format                      : HEVC
    Format/Info                 : High Efficiency Video Coding
    Format profile              : Main [email protected]@High
    Codec ID                    : V_MPEGH/ISO/HEVC
    Duration                    : 1 h 56 min
    Bit rate                    : 11.9 Mb/s
    Width                       : 3 828 pixels
    Height                      : 1 624 pixels
    Display aspect ratio        : 2.35:1
    Frame rate mode             : Constant
    Frame rate                  : 23.976 FPS
    Color space                 : YUV
    Chroma subsampling          : 4:2:0
    Bit depth                   : 10 bits
    Bits/(Pixel*Frame)          : 0.080
    Stream size                 : 9.74 GiB (97%)
    Default                     : Yes
    Forced                      : No
    Color range                 : Limited
    Color primaries             : BT.709
    Transfer characteristics    : BT.709
    Matrix coefficients         : BT.709
    
    Audio
    ID                          : 2
    Format                      : AC-3
    Format/Info                 : Audio Coding 3
    Commercial name             : Dolby Digital
    Codec ID                    : A_AC3
    Duration                    : 1 h 56 min
    Bit rate mode               : Constant
    Bit rate                    : 384 kb/s
    Channel(s)                  : 6 channels
    Channel layout              : L R C LFE Ls Rs
    Sampling rate               : 48.0 kHz
    Frame rate                  : 31.250 FPS (1536 SPF)
    Compression mode            : Lossy
    Stream size                 : 321 MiB (3%)
    Language                    : English
    Service kind                : Complete Main
    Default                     : Yes
    Forced                      : No
    Download - Mirror 1:
    Download - Mirror 2:
     
  2. Loading...


Share This Page