Google Drive The.Giver.2014.1080p.BluRay.x264-SPARKS

Discussion in 'BDRip | 720p/1080p' started by DDLbase, May 3, 2021.

  1. DDLbase

    DDLbase Administrator Staff Member

    [​IMG]

    Rating: 6.5/10 based on 113,256 user ratings

    Genres: Drama, Romance, Sci-Fi, Thriller

    In a seemingly perfect community, without war, pain, suffering, differences or choice, a young boy is chosen to learn from an elderly man about the true pain and pleasure of the “real” world.

    [​IMG]
    Code:
    General
    Unique ID                   : 245660974242111420741737782289409783122 (0xB8D095284A2B4750911245ADB3CC3552)
    Complete name               : The.Giver.2014.1080p.BluRay.x264-SPARKS.mkv
    Format                      : Matroska
    Format version              : Version 4
    File size                   : 7.65 GiB
    Duration                    : 1 h 37 min
    Overall bit rate            : 11.3 Mb/s
    Encoded date                : UTC 2014-11-06 03:08:58
    Writing application         : mkvmerge v6.2.0 ('Promised Land') built on Apr 28 2013 12:22:01
    Writing library             : libebml v1.3.0 + libmatroska v1.4.0
    
    Video
    ID                          : 1
    Format                      : AVC
    Format/Info                 : Advanced Video Codec
    Format profile              : [email protected]
    Format settings             : CABAC / 5 Ref Frames
    Format settings, CABAC      : Yes
    Format settings, Reference  : 5 frames
    Codec ID                    : V_MPEG4/ISO/AVC
    Duration                    : 1 h 37 min
    Bit rate                    : 9 745 kb/s
    Width                       : 1 920 pixels
    Height                      : 800 pixels
    Display aspect ratio        : 2.40:1
    Frame rate mode             : Constant
    Frame rate                  : 23.976 FPS
    Color space                 : YUV
    Chroma subsampling          : 4:2:0
    Bit depth                   : 8 bits
    Scan type                   : Progressive
    Bits/(Pixel*Frame)          : 0.265
    Stream size                 : 6.47 GiB (85%)
    Writing library             : x264 core 142 r2479 dd79a61
    Encoding settings           : cabac=1 / ref=5 / deblock=1:0:0 / analyse=0x3:0x133 / me=umh / subme=7 / psy=1 / psy_rd=1.00:0.00 / mixed_ref=1 / me_range=16 / chroma_me=1 / trellis=1 / 8x8dct=1 / cqm=0 / deadzone=21,11 / fast_pskip=0 / chroma_qp_offset=-2 / threads=60 / lookahead_threads=6 / sliced_threads=0 / nr=0 / decimate=1 / interlaced=0 / bluray_compat=0 / constrained_intra=0 / bframes=3 / b_pyramid=2 / b_adapt=1 / b_bias=0 / direct=1 / weightb=1 / open_gop=0 / weightp=2 / keyint=250 / keyint_min=23 / scenecut=40 / intra_refresh=0 / rc_lookahead=40 / rc=2pass / mbtree=1 / bitrate=9745 / ratetol=1.0 / qcomp=0.60 / qpmin=0 / qpmax=69 / qpstep=4 / cplxblur=20.0 / qblur=0.5 / ip_ratio=1.40 / aq=1:1.00
    Language                    : English
    Default                     : Yes
    Forced                      : No
    
    Audio
    ID                          : 2
    Format                      : DTS
    Format/Info                 : Digital Theater Systems
    Codec ID                    : A_DTS
    Duration                    : 1 h 37 min
    Bit rate mode               : Constant
    Bit rate                    : 1 509 kb/s
    Channel(s)                  : 6 channels
    Channel layout              : C L R Ls Rs LFE
    Sampling rate               : 48.0 kHz
    Frame rate                  : 93.750 FPS (512 SPF)
    Bit depth                   : 24 bits
    Compression mode            : Lossy
    Stream size                 : 1.03 GiB (13%)
    Language                    : English
    Default                     : Yes
    Forced                      : No
    
    Menu
    00:00:00.000                : en:00:00:00.000
    00:05:51.226                : en:00:05:51.226
    00:12:35.505                : en:00:12:35.505
    00:20:55.296                : en:00:20:55.296
    00:26:11.904                : en:00:26:11.904
    00:30:35.250                : en:00:30:35.250
    00:36:26.768                : en:00:36:26.768
    00:41:24.148                : en:00:41:24.148
    00:48:36.539                : en:00:48:36.539
    00:56:21.712                : en:00:56:21.712
    01:01:04.452                : en:01:01:04.452
    01:04:58.645                : en:01:04:58.645
    01:09:59.695                : en:01:09:59.695
    01:17:07.414                : en:01:17:07.414
    01:23:15.866                : en:01:23:15.866
    01:28:02.319                : en:01:28:02.319
    Download - Mirror 1:
    Download - Mirror 2:
    Download - Mirror 3:
     
  2. Loading...


Share This Page