Google Drive The.Good.Neighbor.2022.2160p.WEB-DL.DD5.1.HEVC-CMRG

Discussion in 'Web-DL / Webrip | 4K' started by DDLbase, Jun 19, 2022.

  1. DDLbase

    DDLbase Administrator Staff Member

    [​IMG]

    Rating: 6.3/10 based on 767 user ratings

    Genre: Thriller

    The budding friendship between two very different neighbours takes a tragic turn when David runs over a young woman and causes her death.

    [​IMG]
    Code:
    General
    Unique ID                   : 128640897942748543162868189925741787082 (0x60C755F3316641F0A5670BC0B81177CA)
    Complete name               : The.Good.Neighbor.2022.2160p.WEB-DL.DD5.1.HEVC-CMRG.mkv
    Format                      : Matroska
    Format version              : Version 4
    File size                   : 9.08 GiB
    Duration                    : 1 h 45 min
    Overall bit rate            : 12.3 Mb/s
    Encoded date                : UTC 2022-06-17 04:02:03
    Writing application         : mkvmerge v61.0.0 ('So') 64-bit
    Writing library             : libebml v1.4.2 + libmatroska v1.6.4
    
    Video
    ID                          : 1
    Format                      : HEVC
    Format/Info                 : High Efficiency Video Coding
    Format profile              : Main [email protected]@High
    Codec ID                    : V_MPEGH/ISO/HEVC
    Duration                    : 1 h 45 min
    Bit rate                    : 11.9 Mb/s
    Width                       : 3 836 pixels
    Height                      : 1 600 pixels
    Display aspect ratio        : 2.40:1
    Original display aspect rat : 2.40:1
    Frame rate mode             : Constant
    Frame rate                  : 23.976 FPS
    Color space                 : YUV
    Chroma subsampling          : 4:2:0
    Bit depth                   : 10 bits
    Bits/(Pixel*Frame)          : 0.081
    Stream size                 : 8.79 GiB (97%)
    Language                    : English
    Default                     : Yes
    Forced                      : No
    Color range                 : Limited
    Color primaries             : BT.709
    Transfer characteristics    : BT.709
    Matrix coefficients         : BT.709
    
    Audio
    ID                          : 2
    Format                      : AC-3
    Format/Info                 : Audio Coding 3
    Commercial name             : Dolby Digital
    Codec ID                    : A_AC3
    Duration                    : 1 h 45 min
    Bit rate mode               : Constant
    Bit rate                    : 384 kb/s
    Channel(s)                  : 6 channels
    Channel layout              : L R C LFE Ls Rs
    Sampling rate               : 48.0 kHz
    Frame rate                  : 31.250 FPS (1536 SPF)
    Compression mode            : Lossy
    Stream size                 : 290 MiB (3%)
    Language                    : English
    Service kind                : Complete Main
    Default                     : Yes
    Forced                      : No
    
    Text #1
    ID                          : 3
    Format                      : UTF-8
    Codec ID                    : S_TEXT/UTF8
    Codec ID/Info               : UTF-8 Plain Text
    Duration                    : 1 h 44 min
    Bit rate                    : 44 b/s
    Count of elements           : 1551
    Stream size                 : 33.9 KiB (0%)
    Title                       : SDH
    Language                    : English
    Default                     : No
    Forced                      : No
    
    Text #2
    ID                          : 4
    Format                      : UTF-8
    Codec ID                    : S_TEXT/UTF8
    Codec ID/Info               : UTF-8 Plain Text
    Duration                    : 1 h 44 min
    Bit rate                    : 37 b/s
    Count of elements           : 1295
    Stream size                 : 28.8 KiB (0%)
    Language                    : English
    Default                     : No
    Forced                      : No
    
    Menu
    00:00:00.000                : Chapter 01
    00:08:31.011                : Chapter 02
    00:16:59.894                : Chapter 03
    00:26:01.728                : Chapter 04
    00:33:55.660                : Chapter 05
    00:43:51.673                : Chapter 06
    00:54:55.462                : Chapter 07
    01:05:15.623                : Chapter 08
    01:15:17.058                : Chapter 09
    01:26:22.140                : Chapter 10
    01:41:22.332                : Chapter 11
    Download - Mirror 1:
    Download - Mirror 2:
     
  2. Loading...


Share This Page