Google Drive The.Good.Nurse.2022.1080p.NF.WEB-DL.DDP5.1.Atmos.x264-EVO

Discussion in 'Web-DL / Webrip | 1080p' started by DDLbase, Oct 27, 2022.

  1. DDLbase

    DDLbase Administrator Staff Member

    [​IMG]

    Rating: 6.9/10 based on 1,688 user ratings

    Genres: Biography, Crime, Drama

    An infamous caregiver is implicated in the deaths of hundreds of hospital patients.

    [​IMG]
    Code:
    General
    Unique ID                   : 332922154161273629467123413446516933841 (0xFA76797E658BD514F5A02E2BA3B204D1)
    Complete name               : The.Good.Nurse.2022.1080p.NF.WEB-DL.DDP5.1.Atmos.x264-EVO.mkv
    Format                      : Matroska
    Format version              : Version 4
    File size                   : 6.32 GiB
    Duration                    : 2 h 3 min
    Overall bit rate mode       : Variable
    Overall bit rate            : 7 329 kb/s
    Movie name                  : EVO
    Encoded date                : UTC 2022-10-26 10:02:52
    Writing application         : mkvmerge v49.0.0 ('Sick Of Losing Soulmates') 64-bit
    Writing library             : libebml v1.4.0 + libmatroska v1.6.1
    
    Video
    ID                          : 1
    Format                      : AVC
    Format/Info                 : Advanced Video Codec
    Format profile              : High@L4
    Format settings             : CABAC / 4 Ref Frames
    Format settings, CABAC      : Yes
    Format settings, Reference  : 4 frames
    Codec ID                    : V_MPEG4/ISO/AVC
    Duration                    : 2 h 3 min
    Bit rate mode               : Variable
    Bit rate                    : 6 555 kb/s
    Maximum bit rate            : 20.0 Mb/s
    Width                       : 1 920 pixels
    Height                      : 1 080 pixels
    Display aspect ratio        : 16:9
    Frame rate mode             : Constant
    Frame rate                  : 24.000 FPS
    Color space                 : YUV
    Chroma subsampling          : 4:2:0
    Bit depth                   : 8 bits
    Scan type                   : Progressive
    Bits/(Pixel*Frame)          : 0.132
    Stream size                 : 5.65 GiB (89%)
    Writing library             : x264 core 148 r2727 7d026e8
    Encoding settings           : cabac=1 / ref=4 / deblock=1:0:0 / analyse=0x3:0x111 / me=umh / subme=10 / psy=1 / psy_rd=1.00:0.00 / mixed_ref=1 / me_range=120 / chroma_me=1 / trellis=2 / 8x8dct=1 / cqm=0 / deadzone=21,11 / fast_pskip=1 / chroma_qp_offset=-2 / threads=8 / lookahead_threads=2 / sliced_threads=0 / nr=0 / decimate=1 / interlaced=0 / bluray_compat=0 / stitchable=1 / constrained_intra=0 / bframes=16 / b_pyramid=2 / b_adapt=2 / b_bias=0 / direct=3 / weightb=1 / open_gop=0 / weightp=2 / keyint=240 / keyint_min=121 / scenecut=0 / intra_refresh=0 / rc_lookahead=240 / rc=crf / mbtree=1 / crf=16.0 / qcomp=0.50 / qpmin=6 / qpmax=51 / qpstep=4 / vbv_maxrate=20000 / vbv_bufsize=25000 / crf_max=0.0 / nal_hrd=vbr / filler=0 / ip_ratio=1.40 / aq=1:0.80
    Default                     : Yes
    Forced                      : No
    
    Audio
    ID                          : 2
    Format                      : E-AC-3 JOC
    Format/Info                 : Enhanced AC-3 with Joint Object Coding
    Commercial name             : Dolby Digital Plus with Dolby Atmos
    Codec ID                    : A_EAC3
    Duration                    : 2 h 3 min
    Bit rate mode               : Constant
    Bit rate                    : 768 kb/s
    Channel(s)                  : 6 channels
    Channel layout              : L R C LFE Ls Rs
    Sampling rate               : 48.0 kHz
    Frame rate                  : 31.250 FPS (1536 SPF)
    Compression mode            : Lossy
    Stream size                 : 678 MiB (10%)
    Language                    : English
    Service kind                : Complete Main
    Default                     : Yes
    Forced                      : No
    Complexity index            : 16
    Number of dynamic objects   : 15
    Bed channel count           : 1 channel
    Bed channel configuration   : LFE
    
    Text #1
    ID                          : 3
    Format                      : UTF-8
    Codec ID                    : S_TEXT/UTF8
    Codec ID/Info               : UTF-8 Plain Text
    Duration                    : 1 h 55 min
    Bit rate                    : 64 b/s
    Frame rate                  : 0.247 FPS
    Count of elements           : 1713
    Stream size                 : 54.6 KiB (0%)
    Title                       : English [SDH]
    Language                    : English
    Default                     : No
    Forced                      : No
    
    Text #2
    ID                          : 4
    Format                      : UTF-8
    Codec ID                    : S_TEXT/UTF8
    Codec ID/Info               : UTF-8 Plain Text
    Duration                    : 1 h 55 min
    Bit rate                    : 88 b/s
    Frame rate                  : 0.200 FPS
    Count of elements           : 1394
    Stream size                 : 75.2 KiB (0%)
    Title                       : Arabic
    Language                    : Arabic
    Default                     : No
    Forced                      : No
    
    Text #3
    ID                          : 5
    Format                      : UTF-8
    Codec ID                    : S_TEXT/UTF8
    Codec ID/Info               : UTF-8 Plain Text
    Duration                    : 2 h 0 min
    Bit rate                    : 48 b/s
    Frame rate                  : 0.190 FPS
    Count of elements           : 1371
    Stream size                 : 42.8 KiB (0%)
    Title                       : Basque
    Language                    : Basque
    Default                     : No
    Forced                      : No
    
    Text #4
    ID                          : 6
    Format                      : UTF-8
    Codec ID                    : S_TEXT/UTF8
    Codec ID/Info               : UTF-8 Plain Text
    Duration                    : 2 h 0 min
    Bit rate                    : 47 b/s
    Frame rate                  : 0.193 FPS
    Count of elements           : 1391
    Stream size                 : 41.8 KiB (0%)
    Title                       : Catalan
    Language                    : Catalan
    Default                     : No
    Forced                      : No
    
    Text #5
    ID                          : 7
    Format                      : UTF-8
    Codec ID                    : S_TEXT/UTF8
    Codec ID/Info               : UTF-8 Plain Text
    Duration                    : 2 h 0 min
    Bit rate                    : 53 b/s
    Frame rate                  : 0.194 FPS
    Count of elements           : 1402
    Stream size                 : 46.9 KiB (0%)
    Title                       : Chinese Simplified
    Language                    : Chinese
    Default                     : No
    Forced                      : No
    
    Text #6
    ID                          : 8
    Format                      : UTF-8
    Codec ID                    : S_TEXT/UTF8
    Codec ID/Info               : UTF-8 Plain Text
    Duration                    : 2 h 0 min
    Bit rate                    : 48 b/s
    Frame rate                  : 0.201 FPS
    Count of elements           : 1453
    Stream size                 : 43.0 KiB (0%)
    Title                       : Chinese Traditional
    Language                    : Chinese
    Default                     : No
    Forced                      : No
    
    Text #7
    ID                          : 9
    Format                      : UTF-8
    Codec ID                    : S_TEXT/UTF8
    Codec ID/Info               : UTF-8 Plain Text
    Duration                    : 2 h 0 min
    Bit rate                    : 44 b/s
    Frame rate                  : 0.192 FPS
    Count of elements           : 1388
    Stream size                 : 39.0 KiB (0%)
    Title                       : Croatian
    Language                    : Croatian
    Default                     : No
    Forced                      : No
    
    Text #8
    ID                          : 10
    Format                      : UTF-8
    Codec ID                    : S_TEXT/UTF8
    Codec ID/Info               : UTF-8 Plain Text
    Duration                    : 2 h 0 min
    Bit rate                    : 47 b/s
    Frame rate                  : 0.194 FPS
    Count of elements           : 1402
    Stream size                 : 42.2 KiB (0%)
    Title                       : Czech
    Language                    : Czech
    Default                     : No
    Forced                      : No
    
    Text #9
    ID                          : 11
    Format                      : UTF-8
    Codec ID                    : S_TEXT/UTF8
    Codec ID/Info               : UTF-8 Plain Text
    Duration                    : 2 h 0 min
    Bit rate                    : 45 b/s
    Frame rate                  : 0.181 FPS
    Count of elements           : 1311
    Stream size                 : 39.9 KiB (0%)
    Title                       : Danish
    Language                    : Danish
    Default                     : No
    Forced                      : No
    
    Text #10
    ID                          : 12
    Format                      : UTF-8
    Codec ID                    : S_TEXT/UTF8
    Codec ID/Info               : UTF-8 Plain Text
    Duration                    : 2 h 0 min
    Bit rate                    : 44 b/s
    Frame rate                  : 0.156 FPS
    Count of elements           : 1129
    Stream size                 : 39.6 KiB (0%)
    Title                       : Dutch
    Language                    : Dutch
    Default                     : No
    Forced                      : No
    
    Text #11
    ID                          : 13
    Format                      : UTF-8
    Codec ID                    : S_TEXT/UTF8
    Codec ID/Info               : UTF-8 Plain Text
    Duration                    : 2 h 0 min
    Bit rate                    : 45 b/s
    Frame rate                  : 0.209 FPS
    Count of elements           : 1513
    Stream size                 : 40.3 KiB (0%)
    Title                       : European Spanish
    Language                    : Spanish
    Default                     : No
    Forced                      : No
    
    Text #12
    ID                          : 14
    Format                      : UTF-8
    Codec ID                    : S_TEXT/UTF8
    Codec ID/Info               : UTF-8 Plain Text
    Duration                    : 2 h 0 min
    Bit rate                    : 47 b/s
    Frame rate                  : 0.192 FPS
    Count of elements           : 1385
    Stream size                 : 42.2 KiB (0%)
    Title                       : Filipino
    Language                    : fil
    Default                     : No
    Forced                      : No
    
    Text #13
    ID                          : 15
    Format                      : UTF-8
    Codec ID                    : S_TEXT/UTF8
    Codec ID/Info               : UTF-8 Plain Text
    Duration                    : 2 h 0 min
    Bit rate                    : 47 b/s
    Frame rate                  : 0.180 FPS
    Count of elements           : 1297
    Stream size                 : 41.7 KiB (0%)
    Title                       : Finnish
    Language                    : Finnish
    Default                     : No
    Forced                      : No
    
    Text #14
    ID                          : 16
    Format                      : UTF-8
    Codec ID                    : S_TEXT/UTF8
    Codec ID/Info               : UTF-8 Plain Text
    Duration                    : 2 h 0 min
    Bit rate                    : 46 b/s
    Frame rate                  : 0.180 FPS
    Count of elements           : 1302
    Stream size                 : 40.7 KiB (0%)
    Title                       : French
    Language                    : French
    Default                     : No
    Forced                      : No
    
    Text #15
    ID                          : 17
    Format                      : UTF-8
    Codec ID                    : S_TEXT/UTF8
    Codec ID/Info               : UTF-8 Plain Text
    Duration                    : 2 h 1 min
    Bit rate                    : 72 b/s
    Frame rate                  : 0.248 FPS
    Count of elements           : 1801
    Stream size                 : 63.9 KiB (0%)
    Title                       : French [SDH]
    Language                    : French
    Default                     : No
    Forced                      : No
    
    Text #16
    ID                          : 18
    Format                      : UTF-8
    Codec ID                    : S_TEXT/UTF8
    Codec ID/Info               : UTF-8 Plain Text
    Duration                    : 2 h 0 min
    Bit rate                    : 45 b/s
    Frame rate                  : 0.192 FPS
    Count of elements           : 1386
    Stream size                 : 40.1 KiB (0%)
    Title                       : Galician
    Language                    : Galician
    Default                     : No
    Forced                      : No
    
    Text #17
    ID                          : 19
    Format                      : UTF-8
    Codec ID                    : S_TEXT/UTF8
    Codec ID/Info               : UTF-8 Plain Text
    Duration                    : 2 h 0 min
    Bit rate                    : 48 b/s
    Frame rate                  : 0.186 FPS
    Count of elements           : 1346
    Stream size                 : 42.6 KiB (0%)
    Title                       : German
    Language                    : German
    Default                     : No
    Forced                      : No
    
    Text #18
    ID                          : 20
    Format                      : UTF-8
    Codec ID                    : S_TEXT/UTF8
    Codec ID/Info               : UTF-8 Plain Text
    Duration                    : 1 h 56 min
    Bit rate                    : 71 b/s
    Frame rate                  : 0.257 FPS
    Count of elements           : 1789
    Stream size                 : 60.7 KiB (0%)
    Title                       : German [SDH]
    Language                    : German
    Default                     : No
    Forced                      : No
    
    Text #19
    ID                          : 21
    Format                      : UTF-8
    Codec ID                    : S_TEXT/UTF8
    Codec ID/Info               : UTF-8 Plain Text
    Duration                    : 2 h 0 min
    Bit rate                    : 81 b/s
    Frame rate                  : 0.189 FPS
    Count of elements           : 1367
    Stream size                 : 71.7 KiB (0%)
    Title                       : Greek
    Language                    : Greek
    Default                     : No
    Forced                      : No
    
    Text #20
    ID                          : 22
    Format                      : UTF-8
    Codec ID                    : S_TEXT/UTF8
    Codec ID/Info               : UTF-8 Plain Text
    Duration                    : 2 h 0 min
    Bit rate                    : 81 b/s
    Frame rate                  : 0.189 FPS
    Count of elements           : 1369
    Stream size                 : 72.0 KiB (0%)
    Title                       : Hebrew
    Language                    : Hebrew
    Default                     : No
    Forced                      : No
    
    Text #21
    ID                          : 23
    Format                      : UTF-8
    Codec ID                    : S_TEXT/UTF8
    Codec ID/Info               : UTF-8 Plain Text
    Duration                    : 2 h 0 min
    Bit rate                    : 45 b/s
    Frame rate                  : 0.183 FPS
    Count of elements           : 1324
    Stream size                 : 40.1 KiB (0%)
    Title                       : Hungarian
    Language                    : Hungarian
    Default                     : No
    Forced                      : No
    
    Text #22
    ID                          : 24
    Format                      : UTF-8
    Codec ID                    : S_TEXT/UTF8
    Codec ID/Info               : UTF-8 Plain Text
    Duration                    : 1 h 56 min
    Bit rate                    : 72 b/s
    Frame rate                  : 0.265 FPS
    Count of elements           : 1849
    Stream size                 : 61.7 KiB (0%)
    Title                       : Hungarian [SDH]
    Language                    : Hungarian
    Default                     : No
    Forced                      : No
    
    Text #23
    ID                          : 25
    Format                      : UTF-8
    Codec ID                    : S_TEXT/UTF8
    Codec ID/Info               : UTF-8 Plain Text
    Duration                    : 2 h 0 min
    Bit rate                    : 50 b/s
    Frame rate                  : 0.193 FPS
    Count of elements           : 1392
    Stream size                 : 44.3 KiB (0%)
    Title                       : Indonesian
    Language                    : Indonesian
    Default                     : No
    Forced                      : No
    
    Text #24
    ID                          : 26
    Format                      : UTF-8
    Codec ID                    : S_TEXT/UTF8
    Codec ID/Info               : UTF-8 Plain Text
    Duration                    : 2 h 0 min
    Bit rate                    : 47 b/s
    Frame rate                  : 0.191 FPS
    Count of elements           : 1379
    Stream size                 : 41.5 KiB (0%)
    Title                       : Italian
    Language                    : Italian
    Default                     : No
    Forced                      : No
    
    Text #25
    ID                          : 27
    Format                      : UTF-8
    Codec ID                    : S_TEXT/UTF8
    Codec ID/Info               : UTF-8 Plain Text
    Duration                    : 1 h 56 min
    Bit rate                    : 63 b/s
    Frame rate                  : 0.234 FPS
    Count of elements           : 1630
    Stream size                 : 53.8 KiB (0%)
    Title                       : Italian [SDH]
    Language                    : Italian
    Default                     : No
    Forced                      : No
    
    Text #26
    ID                          : 28
    Format                      : UTF-8
    Codec ID                    : S_TEXT/UTF8
    Codec ID/Info               : UTF-8 Plain Text
    Duration                    : 2 h 0 min
    Bit rate                    : 48 b/s
    Frame rate                  : 0.203 FPS
    Count of elements           : 1468
    Stream size                 : 42.6 KiB (0%)
    Title                       : Japanese
    Language                    : Japanese
    Default                     : No
    Forced                      : No
    
    Text #27
    ID                          : 29
    Format                      : UTF-8
    Codec ID                    : S_TEXT/UTF8
    Codec ID/Info               : UTF-8 Plain Text
    Duration                    : 2 h 0 min
    Bit rate                    : 62 b/s
    Frame rate                  : 0.198 FPS
    Count of elements           : 1431
    Stream size                 : 54.9 KiB (0%)
    Title                       : Korean
    Language                    : Korean
    Default                     : No
    Forced                      : No
    
    Text #28
    ID                          : 30
    Format                      : UTF-8
    Codec ID                    : S_TEXT/UTF8
    Codec ID/Info               : UTF-8 Plain Text
    Duration                    : 2 h 0 min
    Bit rate                    : 48 b/s
    Frame rate                  : 0.192 FPS
    Count of elements           : 1389
    Stream size                 : 42.6 KiB (0%)
    Title                       : Malay
    Language                    : Malay
    Default                     : No
    Forced                      : No
    
    Text #29
    ID                          : 31
    Format                      : UTF-8
    Codec ID                    : S_TEXT/UTF8
    Codec ID/Info               : UTF-8 Plain Text
    Duration                    : 2 h 0 min
    Bit rate                    : 43 b/s
    Frame rate                  : 0.179 FPS
    Count of elements           : 1294
    Stream size                 : 38.8 KiB (0%)
    Title                       : Norwegian Bokmål
    Language                    : Norwegian Bokmal
    Default                     : No
    Forced                      : No
    
    Text #30
    ID                          : 32
    Format                      : UTF-8
    Codec ID                    : S_TEXT/UTF8
    Codec ID/Info               : UTF-8 Plain Text
    Duration                    : 2 h 0 min
    Bit rate                    : 45 b/s
    Frame rate                  : 0.184 FPS
    Count of elements           : 1333
    Stream size                 : 40.2 KiB (0%)
    Title                       : Polish
    Language                    : Polish
    Default                     : No
    Forced                      : No
    
    Text #31
    ID                          : 33
    Format                      : UTF-8
    Codec ID                    : S_TEXT/UTF8
    Codec ID/Info               : UTF-8 Plain Text
    Duration                    : 2 h 0 min
    Bit rate                    : 47 b/s
    Frame rate                  : 0.189 FPS
    Count of elements           : 1365
    Stream size                 : 41.9 KiB (0%)
    Title                       : Portuguese
    Language                    : Portuguese
    Default                     : No
    Forced                      : No
    
    Text #32
    ID                          : 34
    Format                      : UTF-8
    Codec ID                    : S_TEXT/UTF8
    Codec ID/Info               : UTF-8 Plain Text
    Duration                    : 2 h 0 min
    Bit rate                    : 45 b/s
    Frame rate                  : 0.191 FPS
    Count of elements           : 1378
    Stream size                 : 39.9 KiB (0%)
    Title                       : Portuguese Brazilian
    Language                    : Portuguese
    Default                     : No
    Forced                      : No
    
    Text #33
    ID                          : 35
    Format                      : UTF-8
    Codec ID                    : S_TEXT/UTF8
    Codec ID/Info               : UTF-8 Plain Text
    Duration                    : 1 h 56 min
    Bit rate                    : 62 b/s
    Frame rate                  : 0.234 FPS
    Count of elements           : 1629
    Stream size                 : 53.4 KiB (0%)
    Title                       : Portuguese Brazilian [SDH]
    Language                    : Portuguese
    Default                     : No
    Forced                      : No
    
    Text #34
    ID                          : 36
    Format                      : UTF-8
    Codec ID                    : S_TEXT/UTF8
    Codec ID/Info               : UTF-8 Plain Text
    Duration                    : 2 h 0 min
    Bit rate                    : 52 b/s
    Frame rate                  : 0.186 FPS
    Count of elements           : 1347
    Stream size                 : 45.9 KiB (0%)
    Title                       : Romanian
    Language                    : Romanian
    Default                     : No
    Forced                      : No
    
    Text #35
    ID                          : 37
    Format                      : UTF-8
    Codec ID                    : S_TEXT/UTF8
    Codec ID/Info               : UTF-8 Plain Text
    Duration                    : 2 h 0 min
    Bit rate                    : 78 b/s
    Frame rate                  : 0.197 FPS
    Count of elements           : 1420
    Stream size                 : 69.0 KiB (0%)
    Title                       : Russian
    Language                    : Russian
    Default                     : No
    Forced                      : No
    
    Text #36
    ID                          : 38
    Format                      : UTF-8
    Codec ID                    : S_TEXT/UTF8
    Codec ID/Info               : UTF-8 Plain Text
    Duration                    : 2 h 0 min
    Bit rate                    : 47 b/s
    Frame rate                  : 0.195 FPS
    Count of elements           : 1411
    Stream size                 : 41.6 KiB (0%)
    Title                       : Spanish
    Language                    : Spanish
    Default                     : No
    Forced                      : No
    
    Text #37
    ID                          : 39
    Format                      : UTF-8
    Codec ID                    : S_TEXT/UTF8
    Codec ID/Info               : UTF-8 Plain Text
    Duration                    : 1 h 56 min
    Bit rate                    : 62 b/s
    Frame rate                  : 0.234 FPS
    Count of elements           : 1633
    Stream size                 : 53.5 KiB (0%)
    Title                       : Spanish [SDH]
    Language                    : Spanish
    Default                     : No
    Forced                      : No
    
    Text #38
    ID                          : 40
    Format                      : UTF-8
    Codec ID                    : S_TEXT/UTF8
    Codec ID/Info               : UTF-8 Plain Text
    Duration                    : 2 h 0 min
    Bit rate                    : 50 b/s
    Frame rate                  : 0.179 FPS
    Count of elements           : 1292
    Stream size                 : 44.1 KiB (0%)
    Title                       : Swedish
    Language                    : Swedish
    Default                     : No
    Forced                      : No
    
    Text #39
    ID                          : 41
    Format                      : UTF-8
    Codec ID                    : S_TEXT/UTF8
    Codec ID/Info               : UTF-8 Plain Text
    Duration                    : 2 h 0 min
    Bit rate                    : 119 b/s
    Frame rate                  : 0.194 FPS
    Count of elements           : 1405
    Stream size                 : 106 KiB (0%)
    Title                       : Thai
    Language                    : Thai
    Default                     : No
    Forced                      : No
    
    Text #40
    ID                          : 42
    Format                      : UTF-8
    Codec ID                    : S_TEXT/UTF8
    Codec ID/Info               : UTF-8 Plain Text
    Duration                    : 2 h 0 min
    Bit rate                    : 47 b/s
    Frame rate                  : 0.190 FPS
    Count of elements           : 1373
    Stream size                 : 41.6 KiB (0%)
    Title                       : Turkish
    Language                    : Turkish
    Default                     : No
    Forced                      : No
    
    Text #41
    ID                          : 43
    Format                      : UTF-8
    Codec ID                    : S_TEXT/UTF8
    Codec ID/Info               : UTF-8 Plain Text
    Duration                    : 2 h 0 min
    Bit rate                    : 76 b/s
    Frame rate                  : 0.189 FPS
    Count of elements           : 1364
    Stream size                 : 67.7 KiB (0%)
    Title                       : Ukrainian
    Language                    : Ukrainian
    Default                     : No
    Forced                      : No
    
    Text #42
    ID                          : 44
    Format                      : UTF-8
    Codec ID                    : S_TEXT/UTF8
    Codec ID/Info               : UTF-8 Plain Text
    Duration                    : 2 h 0 min
    Bit rate                    : 67 b/s
    Frame rate                  : 0.188 FPS
    Count of elements           : 1357
    Stream size                 : 59.8 KiB (0%)
    Title                       : Vietnamese
    Language                    : Vietnamese
    Default                     : No
    Forced                      : No
    Download - Mirror 1:
    Download - Mirror 2:
     
  2. Loading...


Share This Page