Google Drive The.Good.the.Bad.and.the.Ugly.1966.1080p.EXTENDED.REMASTERED.BluRay.X264-AMIABLE

Discussion in 'BDRip | 720p/1080p' started by DDLbase, Jul 14, 2020.

  1. DDLbase

    DDLbase Administrator Staff Member

    [​IMG]

    Rating: 8.8/10 based on 667,665 user ratings

    Genre: Western

    A bounty hunting scam joins two men in an uneasy alliance against a third in a race to find a fortune in gold buried in a remote cemetery.

    [​IMG]
    Code:
    General
    Complete name               : The.Good.the.Bad.and.the.Ugly.1966.1080p.EXTENDED.REMASTERED.BluRay.X264-AMIABLE.mkv
    Format                      : Matroska
    Format version              : Version 2
    File size                   : 16.4 GiB
    Duration                    : 2 h 58 min
    Overall bit rate            : 13.1 Mb/s
    Writing application         : mkvmerge v6.6.0 ('The Edge Of The In Between') built on Dec 1 2013 17:55:00
    Writing library             : libebml v1.3.0 + libmatroska v1.4.1
    
    Video
    ID                          : 1
    Format                      : AVC
    Format/Info                 : Advanced Video Codec
    Format profile              : [email protected]
    Format settings             : CABAC / 5 Ref Frames
    Format settings, CABAC      : Yes
    Format settings, Reference  : 5 frames
    Codec ID                    : V_MPEG4/ISO/AVC
    Duration                    : 2 h 58 min
    Bit rate                    : 11.6 Mb/s
    Width                       : 1 920 pixels
    Height                      : 816 pixels
    Display aspect ratio        : 2.35:1
    Frame rate mode             : Constant
    Frame rate                  : 23.976 (24000/1001) FPS
    Color space                 : YUV
    Chroma subsampling          : 4:2:0
    Bit depth                   : 8 bits
    Scan type                   : Progressive
    Bits/(Pixel*Frame)          : 0.310
    Stream size                 : 14.2 GiB (87%)
    Writing library             : x264 core 142 r2431 ac76440
    Encoding settings           : cabac=1 / ref=5 / deblock=1:-3:-3 / analyse=0x3:0x133 / me=umh / subme=9 / psy=1 / psy_rd=1.15:0.00 / mixed_ref=1 / me_range=32 / chroma_me=1 / trellis=2 / 8x8dct=1 / cqm=0 / deadzone=21,11 / fast_pskip=1 / chroma_qp_offset=-2 / threads=18 / lookahead_threads=1 / sliced_threads=0 / nr=0 / decimate=1 / interlaced=0 / bluray_compat=0 / constrained_intra=0 / bframes=3 / b_pyramid=2 / b_adapt=2 / b_bias=0 / direct=3 / weightb=1 / open_gop=0 / weightp=2 / keyint=240 / keyint_min=24 / scenecut=40 / intra_refresh=0 / rc_lookahead=60 / rc=2pass / mbtree=1 / bitrate=11635 / ratetol=1.0 / qcomp=0.60 / qpmin=0 / qpmax=69 / qpstep=4 / cplxblur=20.0 / qblur=0.5 / ip_ratio=1.40 / aq=1:0.80
    Language                    : English
    Default                     : Yes
    Forced                      : No
    
    Audio
    ID                          : 2
    Format                      : DTS
    Format/Info                 : Digital Theater Systems
    Codec ID                    : A_DTS
    Duration                    : 2 h 58 min
    Bit rate mode               : Constant
    Bit rate                    : 1 509 kb/s
    Channel(s)                  : 6 channels
    ChannelLayout_Original      : C L R Ls Rs LFE
    Sampling rate               : 48.0 kHz
    Frame rate                  : 93.750 FPS (512 SPF)
    Bit depth                   : 24 bits
    Compression mode            : Lossy
    Stream size                 : 1.88 GiB (11%)
    Language                    : English
    Default                     : Yes
    Forced                      : No
    
    Text #1
    ID                          : 3
    Format                      : UTF-8
    Codec ID                    : S_TEXT/UTF8
    Codec ID/Info               : UTF-8 Plain Text
    Title                       : SDH
    Language                    : English
    Default                     : No
    Forced                      : No
    
    Text #2
    ID                          : 4
    Format                      : UTF-8
    Codec ID                    : S_TEXT/UTF8
    Codec ID/Info               : UTF-8 Plain Text
    Language                    : English
    Default                     : No
    Forced                      : No
    
    Menu
    00:00:00.000                : en:00:00:00.000
    00:03:01.807                : en:00:03:01.807
    00:06:06.283                : en:00:06:06.283
    00:15:09.909                : en:00:15:09.909
    00:17:32.301                : en:00:17:32.301
    00:22:02.446                : en:00:22:02.446
    00:24:43.440                : en:00:24:43.440
    00:27:53.797                : en:00:27:53.797
    00:29:48.829                : en:00:29:48.829
    00:32:11.847                : en:00:32:11.847
    00:38:24.511                : en:00:38:24.511
    00:41:40.581                : en:00:41:40.581
    00:49:44.315                : en:00:49:44.315
    00:54:01.822                : en:00:54:01.822
    00:57:25.734                : en:00:57:25.734
    01:06:05.336                : en:01:06:05.336
    01:13:40.541                : en:01:13:40.541
    01:22:38.871                : en:01:22:38.871
    01:29:27.737                : en:01:29:27.737
    01:35:34.270                : en:01:35:34.270
    01:38:28.611                : en:01:38:28.611
    01:47:07.630                : en:01:47:07.630
    01:53:20.669                : en:01:53:20.669
    01:57:02.432                : en:01:57:02.432
    02:06:06.684                : en:02:06:06.684
    02:11:00.394                : en:02:11:00.394
    02:17:42.171                : en:02:17:42.171
    02:23:56.711                : en:02:23:56.711
    02:32:55.041                : en:02:32:55.041
    02:39:32.521                : en:02:39:32.521
    02:43:19.665                : en:02:43:19.665
    02:49:01.089                : en:02:49:01.089

    Download:
     
  2. Loading...


Share This Page