Google Drive The.Green.Knight.2021.1080p.AMZN.WEB-DL.DDP5.1.Atmos.H.264-FLUX

Discussion in 'Web-DL / Webrip | 1080p' started by DDLbase, Aug 20, 2021.

  1. DDLbase

    DDLbase Administrator Staff Member

    [​IMG]

    Rating: 7.2/10 based on 15.670 user ratings

    Genres: Adventure, Drama, Fantasy

    A fantasy re-telling of the medieval story of Sir Gawain and the Green Knight.

    [​IMG]
    Code:
    General
    Unique ID                   : 256661906838377743718481372653428358598 (0xC1174902A0DD6CB95806A43362073DC6)
    Complete name               : The.Green.Knight.2021.1080p.AMZN.WEB-DL.DDP5.1.Atmos.H.264-FLUX.mkv
    Format                      : Matroska
    Format version              : Version 4
    File size                   : 5.96 GiB
    Duration                    : 2 h 9 min
    Overall bit rate            : 6 573 kb/s
    Movie name                  : The Green Knight (2021)
    Encoded date                : UTC 2021-08-19 04:20:02
    Writing application         : mkvmerge v59.0.0 ('Shining Star') 64-bit
    Writing library             : libebml v1.4.2 + libmatroska v1.6.4
    IMDB                        : tt9243804
    TMDB                        : movie/559907
    
    Video
    ID                          : 1
    Format                      : AVC
    Format/Info                 : Advanced Video Codec
    Format profile              : [email protected]
    Format settings             : CABAC / 4 Ref Frames
    Format settings, CABAC      : Yes
    Format settings, Reference  : 4 frames
    Codec ID                    : V_MPEG4/ISO/AVC
    Duration                    : 2 h 9 min
    Bit rate mode               : Constant
    Bit rate                    : 5 803 kb/s
    Nominal bit rate            : 10 000 kb/s
    Width                       : 1 920 pixels
    Height                      : 1 040 pixels
    Display aspect ratio        : 1.85:1
    Frame rate mode             : Constant
    Frame rate                  : 23.976 (24000/1001) FPS
    Color space                 : YUV
    Chroma subsampling          : 4:2:0
    Bit depth                   : 8 bits
    Scan type                   : Progressive
    Bits/(Pixel*Frame)          : 0.121
    Stream size                 : 5.26 GiB (88%)
    Default                     : Yes
    Forced                      : No
    Color range                 : Limited
    Color primaries             : BT.709
    Transfer characteristics    : BT.709
    Matrix coefficients         : BT.709
    
    Audio
    ID                          : 2
    Format                      : E-AC-3 JOC
    Format/Info                 : Enhanced AC-3 with Joint Object Coding
    Commercial name             : Dolby Digital Plus with Dolby Atmos
    Codec ID                    : A_EAC3
    Duration                    : 2 h 9 min
    Bit rate mode               : Constant
    Bit rate                    : 768 kb/s
    Channel(s)                  : 6 channels
    Channel layout              : L R C LFE Ls Rs
    Sampling rate               : 48.0 kHz
    Frame rate                  : 31.250 FPS (1536 SPF)
    Compression mode            : Lossy
    Delay relative to video     : 12 ms
    Stream size                 : 713 MiB (12%)
    Language                    : English
    Service kind                : Complete Main
    Default                     : Yes
    Forced                      : No
    Complexity index            : 16
    Number of dynamic objects   : 15
    Bed channel count           : 1 channel
    Bed channel configuration   : LFE
    
    Text #1
    ID                          : 3
    Format                      : UTF-8
    Codec ID                    : S_TEXT/UTF8
    Codec ID/Info               : UTF-8 Plain Text
    Duration                    : 2 h 5 min
    Bit rate                    : 23 b/s
    Count of elements           : 814
    Stream size                 : 21.4 KiB (0%)
    Title                       : English
    Language                    : English
    Default                     : No
    Forced                      : No
    
    Text #2
    ID                          : 4
    Format                      : UTF-8
    Codec ID                    : S_TEXT/UTF8
    Codec ID/Info               : UTF-8 Plain Text
    Duration                    : 2 h 8 min
    Bit rate                    : 31 b/s
    Count of elements           : 1238
    Stream size                 : 29.7 KiB (0%)
    Title                       : English [CC]
    Language                    : English
    Default                     : No
    Forced                      : No
    Download - Mirror 1:
    Download - Mirror 2:
     
  2. Loading...


Share This Page