Google Drive The.Green.Knight.2021.2160p.WEB-DL.DDP5.1.Atmos.DV.HEVC-FLUX

Discussion in 'Web-DL / Webrip | 4K' started by DDLbase, Aug 20, 2021.

  1. DDLbase

    DDLbase Administrator Staff Member

    [​IMG]

    Rating: 7.2/10 based on 15.670 user ratings

    Genres: Adventure, Drama, Fantasy

    A fantasy re-telling of the medieval story of Sir Gawain and the Green Knight.

    [​IMG]
    Code:
    General
    Unique ID                   : 29892529024130546498416900246889529148 (0x167D177815CB76CB808B1D2906677F3C)
    Complete name               : The.Green.Knight.2021.2160p.WEB-DL.DDP5.1.Atmos.DV.HEVC-FLUX.mkv
    Format                      : Matroska
    Format version              : Version 4
    File size                   : 13.8 GiB
    Duration                    : 2 h 9 min
    Overall bit rate            : 15.2 Mb/s
    Movie name                  : The Green Knight (2021)
    Encoded date                : UTC 2021-08-19 04:40:30
    Writing application         : mkvmerge v59.0.0 ('Shining Star') 64-bit
    Writing library             : libebml v1.4.2 + libmatroska v1.6.4
    IMDB                        : tt9243804
    TMDB                        : movie/559907
    
    Video
    ID                          : 1
    Format                      : HEVC
    Format/Info                 : High Efficiency Video Coding
    Format profile              : Main [email protected]@High
    Codec ID                    : V_MPEGH/ISO/HEVC
    Duration                    : 2 h 9 min
    Bit rate                    : 14.4 Mb/s
    Width                       : 3 840 pixels
    Original width              : 3 836 pixels
    Height                      : 2 072 pixels
    Display aspect ratio        : 1.85:1
    Original display aspect rat : 1.85:1
    Frame rate mode             : Constant
    Frame rate                  : 23.976 (24000/1001) FPS
    Color space                 : YUV
    Chroma subsampling          : 4:2:0
    Bit depth                   : 10 bits
    Bits/(Pixel*Frame)          : 0.076
    Stream size                 : 13.1 GiB (95%)
    Default                     : Yes
    Forced                      : No
    
    Audio
    ID                          : 2
    Format                      : E-AC-3 JOC
    Format/Info                 : Enhanced AC-3 with Joint Object Coding
    Commercial name             : Dolby Digital Plus with Dolby Atmos
    Codec ID                    : A_EAC3
    Duration                    : 2 h 9 min
    Bit rate mode               : Constant
    Bit rate                    : 768 kb/s
    Channel(s)                  : 6 channels
    Channel layout              : L R C LFE Ls Rs
    Sampling rate               : 48.0 kHz
    Frame rate                  : 31.250 FPS (1536 SPF)
    Compression mode            : Lossy
    Stream size                 : 713 MiB (5%)
    Title                       : English
    Language                    : English
    Service kind                : Complete Main
    Default                     : No
    Forced                      : No
    Complexity index            : 16
    Number of dynamic objects   : 15
    Bed channel count           : 1 channel
    Bed channel configuration   : LFE
    
    Text #1
    ID                          : 3
    Format                      : UTF-8
    Codec ID                    : S_TEXT/UTF8
    Codec ID/Info               : UTF-8 Plain Text
    Duration                    : 2 h 5 min
    Bit rate                    : 24 b/s
    Count of elements           : 821
    Stream size                 : 22.2 KiB (0%)
    Title                       : English
    Language                    : English
    Default                     : No
    Forced                      : No
    
    Text #2
    ID                          : 4
    Format                      : UTF-8
    Codec ID                    : S_TEXT/UTF8
    Codec ID/Info               : UTF-8 Plain Text
    Duration                    : 2 h 8 min
    Bit rate                    : 32 b/s
    Count of elements           : 1238
    Stream size                 : 30.3 KiB (0%)
    Title                       : English [CC]
    Language                    : English
    Default                     : No
    Forced                      : No
    
    Menu
    00:00:00.000                : Chapter 1
    00:32:55.000                : Chapter 2
    01:02:11.000                : Chapter 3
    01:30:42.000                : Chapter 4
    02:04:38.000                : Chapter 5
    Download - Mirror 1:
    Download - Mirror 2:
     
  2. Loading...


Share This Page