Google Drive The.Green.Mile.1999.1080p.BluRay.x264-HDMI

Discussion in 'BDRip | 720p/1080p' started by DDLbase, May 2, 2021.

  1. DDLbase

    DDLbase Administrator Staff Member

    [​IMG]

    Rating: 8.6/10 based on 1,169,242 user ratings

    Genres: Crime, Drama, Fantasy

    The lives of guards on Death Row are affected by one of their charges: a black man accused of child murder and rape, yet who has a mysterious gift.

    [​IMG]
    Code:
    General
    Unique ID                   : 208681605652182365367314748904983672197 (0x9CFE9D856771923F903FDE641B7AB585)
    Complete name               : The.Green.Mile.1999.1080p.BluRay.x264-HDMI.mkv
    Format                      : Matroska
    Format version              : Version 2
    File size                   : 15.3 GiB
    Duration                    : 3 h 8 min
    Overall bit rate            : 11.6 Mb/s
    Encoded date                : UTC 2009-10-19 17:05:36
    Writing application         : mkvmerge v2.9.8 ('C'est le bon') built on Aug 13 2009 12:49:06
    Writing library             : libebml v0.7.7 + libmatroska v0.8.1
    
    Video
    ID                          : 1
    Format                      : AVC
    Format/Info                 : Advanced Video Codec
    Format profile              : [email protected]
    Format settings             : CABAC / 4 Ref Frames
    Format settings, CABAC      : Yes
    Format settings, Reference  : 4 frames
    Codec ID                    : V_MPEG4/ISO/AVC
    Duration                    : 3 h 8 min
    Bit rate                    : 11.0 Mb/s
    Width                       : 1 920 pixels
    Height                      : 1 080 pixels
    Display aspect ratio        : 16:9
    Frame rate mode             : Constant
    Frame rate                  : 23.976 FPS
    Color space                 : YUV
    Chroma subsampling          : 4:2:0
    Bit depth                   : 8 bits
    Scan type                   : Progressive
    Bits/(Pixel*Frame)          : 0.221
    Stream size                 : 14.2 GiB (93%)
    Writing library             : x264 core 75 r1259M dd026f2
    Encoding settings           : cabac=1 / ref=4 / deblock=1:0:0 / analyse=0x3:0x2 / me=umh / subme=7 / psy=1 / psy_rd=1.0:0.0 / mixed_ref=1 / me_range=16 / chroma_me=1 / trellis=1 / 8x8dct=1 / cqm=0 / deadzone=21,11 / chroma_qp_offset=-2 / threads=12 / nr=0 / decimate=1 / mbaff=0 / bframes=3 / b_pyramid=1 / b_adapt=1 / b_bias=0 / direct=1 / wpredb=1 / keyint=250 / keyint_min=25 / scenecut=40 / rc=2pass / mbtree=0 / bitrate=10977 / ratetol=1.0 / qcomp=0.60 / qpmin=10 / qpmax=51 / qpstep=4 / cplxblur=20.0 / qblur=0.5 / ip_ratio=1.40 / pb_ratio=1.30 / aq=1:1.00 / pulldown=0 / nal_hrd=0
    Language                    : English
    Default                     : No
    Forced                      : No
    
    Audio
    ID                          : 2
    Format                      : AC-3
    Format/Info                 : Audio Coding 3
    Commercial name             : Dolby Digital
    Codec ID                    : A_AC3
    Duration                    : 3 h 8 min
    Bit rate mode               : Constant
    Bit rate                    : 640 kb/s
    Channel(s)                  : 6 channels
    Channel layout              : L R C LFE Ls Rs
    Sampling rate               : 48.0 kHz
    Frame rate                  : 31.250 FPS (1536 SPF)
    Compression mode            : Lossy
    Stream size                 : 863 MiB (6%)
    Language                    : English
    Service kind                : Complete Main
    Default                     : Yes
    Forced                      : No
    
    Text
    ID                          : 3
    Format                      : UTF-8
    Codec ID                    : S_TEXT/UTF8
    Codec ID/Info               : UTF-8 Plain Text
    Language                    : English
    Default                     : Yes
    Forced                      : No
    Download - Mirror 1:
    Download - Mirror 2:
     
  2. Loading...


Share This Page