Google Drive The Hunger Games Catching Fire 2013 1080p BluRay Remux DTS x264-decibeL

Discussion in 'BD REMUX | 1080p' started by DDLbase, Nov 11, 2019.

  1. DDLbase

    DDLbase Administrator Staff Member

    [​IMG]
    The Hunger Games: Catching Fire (2013)

    [​IMG] 7.5/10 [​IMG] 583,357

    Plot

    The Hunger Games: Catching Fire is a 2013 American dystopian science fiction adventure film based on Suzanne Collins' dystopian novel Catching Fire (2009), the second installment in The Hunger Games trilogy. The film is the sequel to The Hunger Games (2012) and the second installment in The Hunger Games film series, produced by Nina Jacobson and Jon Kilik, with co-production by Lionsgate Films and distributed by Lionsgate Entertainment. Francis Lawrence directed the film, with a screenplay by Simon Beaufoy and Michael Arndt (credited as Michael deBruyn). Adding to the existing cast, the supporting cast was filled out with Philip Seymour Hoffman, Jeffrey Wright, Sam Claflin, Lynn Cohen, Jena Malone, and Amanda Plummer. Filming began on September 10, 2012, in Atlanta, Georgia, before moving to Hawaii. The plot of Catching Fire takes place a few months after the previous installment; Katniss Everdeen and fellow District 12 tribute Peeta Mellark have returned home safely after winning the 74th Annual Hunger Games. Throughout the story, Katniss senses that a rebellion against the oppressive Capitol is simmering throughout the districts.
    The Hunger Games: Catching Fire premiered in London on November 11, 2013 and was theatrically released on November 15, 2013, in Brazil; November 20 in Finland, Sweden, and Norway; November 21 in the United Kingdom; and November 22 in IMAX, in the United States. The film set records for the biggest November opening weekend and biggest three- and five-day Thanksgiving box-office totals, surpassing the first film's box office grosses. It ranks as the 22nd-highest-grossing film at the domestic box office and the highest-grossing film at the domestic box office of 2013, becoming the first 2-D film since The Dark Knight (2008) to top the yearly box office, as well as having a lead female top the box office since The Exorcist (1973). The film has grossed over $865 million worldwide and is the fifth-highest-grossing film of 2013 and the highest-grossing entry in The Hunger Games series. The film was followed by The Hunger Games: Mockingjay, a two-part sequel and finale of the franchise: Part 1 was released on November 21, 2014, in the United States, and Part 2 on November 20, 2015.
    Catching Fire received positive reviews and is widely considered by critics to be an improvement over its predecessor, with the sentiment being that it's "a more-confident, more-polished movie"; praise also goes to Lawrence's performance as Katniss. It's the most critically acclaimed chapter in The Hunger Games series, according to review aggregator Rotten Tomatoes. The film also received numerous nominations, with a nomination for the Broadcast Film Critics Association Award for Best Action Film and a Saturn Award for Best Science Fiction Film. For her performance, Lawrence was nominated a second time for the Empire Award for Best Actress as well as the Saturn Award and Broadcast Film Critics Association Award. The song "Atlas" was also nominated for the Grammy Award for Best Song Written for Visual Media and a Golden Globe Award for Best Original Song.

    Movie Info
    • Rating: PG-13
    • Genre: Action, Adventure, Sci-Fi, Thriller
    • Directed By: Francis Lawrence
    • Written By: Simon Beaufoy (screenplay), Michael Arndt (screenplay), Suzanne Collins (novel)
    • Starring: Jennifer Lawrence, Liam Hemsworth, Jack Quaid, Taylor St. Clair
    • Release Date: 22 Nov 2013
    • Runtime: 146 min
    • On Disk/Streaming: 07 Mar 2014
    • Box Office (USA): $336,663,349
    • Awards: Nominated for 1 Golden Globe. Another 22 wins & 66 nominations.
    • Studio: Lionsgate Films
    [​IMG]

    Code:
    General
    Unique ID                                : 170985694351280594976361078884690948983 (0x80A2A59A03410BE8B5EC6BEF8E65F377)
    Complete name                            : WoMoRKTcG0oHXVYTCfkyujNqzn8Tx5.mkv
    Format                                   : Matroska
    Format version                           : Version 4 / Version 2
    File size                                : 23.1 GiB
    Duration                                 : 2 h 26 min
    Overall bit rate                         : 22.6 Mb/s
    Movie name                               : The.Hunger.Games.Catching.Fire.2013.1080p.BluRay.DTS.x264-decibeL
    Encoded date                             : UTC 2014-03-25 16:20:56
    Writing application                      : mkvmerge v6.8.0 ('Theme for Great Cities') 64bit built on Mar  2 2014 21:34:26
    Writing library                          : libebml v1.3.0 + libmatroska v1.4.1
    
    Video
    ID                                       : 1
    Format                                   : AVC
    Format/Info                              : Advanced Video Codec
    Format profile                           : [email protected]
    Format settings                          : CABAC / 4 Ref Frames
    Format settings, CABAC                   : Yes
    Format settings, ReFrames                : 4 frames
    Codec ID                                 : V_MPEG4/ISO/AVC
    Duration                                 : 2 h 26 min
    Bit rate                                 : 20.4 Mb/s
    Width                                    : 1 920 pixels
    Height                                   : 1 080 pixels
    Display aspect ratio                     : 16:9
    Frame rate mode                          : Constant
    Frame rate                               : 23.976 (24000/1001) FPS
    Color space                              : YUV
    Chroma subsampling                       : 4:2:0
    Bit depth                                : 8 bits
    Scan type                                : Progressive
    Bits/(Pixel*Frame)                       : 0.410
    Stream size                              : 20.8 GiB (90%)
    Writing library                          : x264 core 142 r2389+41 02cb608 tMod [8-bit@4:2:0 X86_64]
    Encoding settings                        : cabac=1 / ref=4 / deblock=1:-3:-3 / analyse=0x3:0x113 / me=umh / subme=11 / psy=1 / fade_compensate=0.00 / psy_rd=1.10:0.00 / mixed_ref=1 / me_range=64 / chroma_me=1 / trellis=2 / 8x8dct=1 / cqm=0 / deadzone=21,11 / fast_pskip=0 / chroma_qp_offset=-2 / threads=12 / lookahead_threads=3 / sliced_threads=0 / nr=0 / decimate=0 / interlaced=0 / bluray_compat=0 / constrained_intra=0 / fgo=0 / bframes=12 / b_pyramid=2 / b_adapt=2 / b_bias=0 / direct=3 / weightb=1 / open_gop=0 / weightp=2 / keyint=250 / keyint_min=23 / scenecut=40 / intra_refresh=0 / rc_lookahead=240 / rc=crf / mbtree=1 / crf=12.8000 / qcomp=0.70 / qpmin=0:0:0 / qpmax=69:69:69 / qpstep=4 / vbv_maxrate=38000 / vbv_bufsize=30000 / crf_max=0.0 / nal_hrd=none / filler=0 / ip_ratio=1.20 / aq=2:0.75 / aq-sensitivity=10.00 / aq-factor=1.00:1.00:1.00 / aq2=0 / aq3=0
    Language                                 : English
    Default                                  : Yes
    Forced                                   : No
    
    Audio #1
    ID                                       : 2
    Format                                   : DTS
    Format/Info                              : Digital Theater Systems
    Codec ID                                 : A_DTS
    Duration                                 : 2 h 26 min
    Bit rate mode                            : Constant
    Bit rate                                 : 1 509 kb/s
    Channel(s)                               : 6 channels
    Channel positions                        : Front: L C R, Side: L R, LFE
    Sampling rate                            : 48.0 kHz
    Frame rate                               : 93.750 FPS (512 SPF)
    Bit depth                                : 24 bits
    Compression mode                         : Lossy
    Stream size                              : 1.54 GiB (7%)
    Language                                 : English
    Default                                  : Yes
    Forced                                   : No
    
    Audio #2
    ID                                       : 3
    Format                                   : AC-3
    Format/Info                              : Audio Coding 3
    Codec ID                                 : A_AC3
    Duration                                 : 2 h 26 min
    Bit rate mode                            : Constant
    Bit rate                                 : 224 kb/s
    Channel(s)                               : 2 channels
    Channel positions                        : Front: L R
    Sampling rate                            : 48.0 kHz
    Frame rate                               : 31.250 FPS (1536 SPF)
    Bit depth                                : 16 bits
    Compression mode                         : Lossy
    Stream size                              : 234 MiB (1%)
    Title                                    : Commentary with Director Francis Lawrence and Producer Nina Jacobson
    Language                                 : English
    Service kind                             : Complete Main
    Default                                  : No
    Forced                                   : No
    
    Text #1
    ID                                       : 4
    Format                                   : UTF-8
    Codec ID                                 : S_TEXT/UTF8
    Codec ID/Info                            : UTF-8 Plain Text
    Language                                 : English
    Default                                  : No
    Forced                                   : No
    
    Text #2
    ID                                       : 5
    Format                                   : UTF-8
    Codec ID                                 : S_TEXT/UTF8
    Codec ID/Info                            : UTF-8 Plain Text
    Title                                    : SDH
    Language                                 : English
    Default                                  : No
    Forced                                   : No
    
    Text #3
    ID                                       : 6
    Format                                   : UTF-8
    Codec ID                                 : S_TEXT/UTF8
    Codec ID/Info                            : UTF-8 Plain Text
    Language                                 : Norwegian
    Default                                  : No
    Forced                                   : No
    
    Menu
    00:00:00.000                             : en:Chapter 1
    00:10:30.672                             : en:Chapter 2
    00:16:59.268                             : en:Chapter 3
    00:26:25.125                             : en:Chapter 4
    00:31:34.518                             : en:Chapter 5
    00:33:38.266                             : en:Chapter 6
    00:40:44.150                             : en:Chapter 7
    00:45:31.729                             : en:Chapter 8
    00:52:24.141                             : en:Chapter 9
    00:55:53.392                             : en:Chapter 10
    01:01:22.596                             : en:Chapter 11
    01:08:23.433                             : en:Chapter 12
    01:16:59.949                             : en:Chapter 13
    01:22:47.462                             : en:Chapter 14
    01:27:02.759                             : en:Chapter 15
    01:31:43.289                             : en:Chapter 16
    01:35:05.283                             : en:Chapter 17
    01:40:55.132                             : en:Chapter 18
    01:46:54.033                             : en:Chapter 19
    01:54:13.138                             : en:Chapter 20
    01:58:16.673                             : en:Chapter 21
    02:02:58.204                             : en:Chapter 22
    02:10:09.760                             : en:Chapter 23
    02:15:42.384                             : en:Chapter 24
    Download:
     
  2. Loading...


Share This Page