Google Drive The.Hunt.2020.1080p.BluRay.Remux.AVC.DTS-HD.MA.7.1-PmP

Discussion in 'BD REMUX | 1080p' started by DDLbase, Jun 3, 2020.

  1. DDLbase

    DDLbase Administrator Staff Member

    [​IMG]

    Rating: 6.4/10 based on 35,932 user ratings

    Genres: Action, Horror, Thriller

    Twelve strangers wake up in a clearing. They don’t know where they are, or how they got there. They don’t know they’ve been chosen – for a very specific purpose – The Hunt.

    [​IMG]
    Code:
    General
    Unique ID                   : 338632512434392374016462222179563355185 (0xFEC23FE4BD7B71DCBE493A5D202E3C31)
    Complete name               : The.Hunt.2020.1080p.BluRay.Remux.AVC.DTS-HD.MA.7.1-PmP.mkv
    Format                      : Matroska
    Format version              : Version 4
    File size                   : 20.3 GiB
    Duration                    : 1 h 30 min
    Overall bit rate mode       : Variable
    Overall bit rate            : 32.3 Mb/s
    Encoded date                : UTC 2020-05-30 21:12:28
    Writing application         : mkvmerge v45.0.0 ('Heaven in Pennies') 64-bit
    Writing library             : libebml v1.3.10 + libmatroska v1.5.2
    
    Video
    ID                          : 1
    Format                      : AVC
    Format/Info                 : Advanced Video Codec
    Format profile              : [email protected]
    Format settings             : CABAC / 2 Ref Frames
    Format settings, CABAC      : Yes
    Format settings, Reference  : 2 frames
    Format settings, GOP        : M=1, N=10
    Codec ID                    : V_MPEG4/ISO/AVC
    Duration                    : 1 h 30 min
    Bit rate mode               : Variable
    Bit rate                    : 27.3 Mb/s
    Width                       : 1 920 pixels
    Height                      : 1 080 pixels
    Display aspect ratio        : 16:9
    Frame rate mode             : Constant
    Frame rate                  : 23.976 (24000/1001) FPS
    Color space                 : YUV
    Chroma subsampling          : 4:2:0
    Bit depth                   : 8 bits
    Scan type                   : Progressive
    Bits/(Pixel*Frame)          : 0.548
    Stream size                 : 17.1 GiB (84%)
    Title                       : MPEG-4 AVC Video / 27268 kbps / 1080p / 23.976 fps / 16:9 / High Profile 4.1
    Language                    : English
    Default                     : Yes
    Forced                      : No
    
    Audio
    ID                          : 2
    Format                      : DTS XLL
    Format/Info                 : Digital Theater Systems
    Commercial name             : DTS-HD Master Audio
    Codec ID                    : A_DTS
    Duration                    : 1 h 30 min
    Bit rate mode               : Variable
    Bit rate                    : 4 949 kb/s
    Channel(s)                  : 8 channels
    Channel layout              : C L R LFE Lb Rb Lss Rss
    Sampling rate               : 48.0 kHz
    Frame rate                  : 93.750 FPS (512 SPF)
    Bit depth                   : 24 bits
    Compression mode            : Lossless
    Stream size                 : 3.11 GiB (15%)
    Title                       : DTS-HD Master Audio / 7.1 / 48 kHz / 4949 kbps / 24-bit
    Language                    : English
    Default                     : Yes
    Forced                      : No
    
    Text #1
    ID                          : 3
    Format                      : PGS
    Codec ID                    : S_HDMV/PGS
    Codec ID/Info               : Picture based subtitle format used on BDs/HD-DVDs
    Duration                    : 1 h 23 min
    Bit rate                    : 41.2 kb/s
    Count of elements           : 2460
    Stream size                 : 24.8 MiB (0%)
    Title                       : SDH
    Language                    : English
    Default                     : No
    Forced                      : No
    
    Text #2
    ID                          : 4
    Format                      : PGS
    Codec ID                    : S_HDMV/PGS
    Codec ID/Info               : Picture based subtitle format used on BDs/HD-DVDs
    Duration                    : 1 h 28 min
    Bit rate                    : 34.0 kb/s
    Count of elements           : 2134
    Stream size                 : 21.6 MiB (0%)
    Language                    : French
    Default                     : No
    Forced                      : No
    
    Text #3
    ID                          : 5
    Format                      : PGS
    Codec ID                    : S_HDMV/PGS
    Codec ID/Info               : Picture based subtitle format used on BDs/HD-DVDs
    Duration                    : 1 h 28 min
    Bit rate                    : 32.7 kb/s
    Count of elements           : 2306
    Stream size                 : 20.8 MiB (0%)
    Title                       : Latin American
    Language                    : Spanish
    Default                     : No
    Forced                      : No
    
    Menu
    00:00:00.000                : en:Chapter 1
    00:02:13.299                : en:Chapter 2
    00:06:57.083                : en:Chapter 3
    00:10:44.644                : en:Chapter 4
    00:15:34.725                : en:Chapter 5
    00:18:05.667                : en:Chapter 6
    00:22:32.267                : en:Chapter 7
    00:25:22.229                : en:Chapter 8
    00:31:54.579                : en:Chapter 9
    00:38:49.869                : en:Chapter 10
    00:43:11.880                : en:Chapter 11
    00:49:48.443                : en:Chapter 12
    00:52:26.184                : en:Chapter 13
    00:56:58.081                : en:Chapter 14
    01:00:44.432                : en:Chapter 15
    01:05:08.654                : en:Chapter 16
    01:08:11.337                : en:Chapter 17
    01:14:47.816                : en:Chapter 18
    01:22:04.836                : en:Chapter 19
    01:24:55.048                : en:Chapter 20
    Download - Mirror 1:
    Download - Mirror 2:
     
  2. Loading...


Share This Page