Google Drive The.Islands.2019.1080p.WEB-DL.H264.AC3-EVO

Discussion in 'Web-DL / Webrip | 1080p' started by DDLbase, May 6, 2020.

  1. DDLbase

    DDLbase Administrator Staff Member

    [​IMG]

    Rating: 7.4/10 based on 502 user ratings

    Genre: Adventure

    Based on the incredible true-life story of Chiefess Kapiolani who descended into an active volcano to demonstrate her new-found faith and ushered in a new beginning in Hawaii.

    [​IMG]
    Code:
    General
    Unique ID                   : 254772249520035612546220089812920645614 (0xBFAB59B61AE7DE78331B47CC8A9937EE)
    Complete name               : The.Islands.2019.1080p.WEB-DL.H264.AC3-EVO.mkv
    Format                      : Matroska
    Format version              : Version 4
    File size                   : 3.08 GiB
    Duration                    : 1 h 29 min
    Overall bit rate            : 4 943 kb/s
    Encoded date                : UTC 2020-05-05 11:15:34
    Writing application         : mkvmerge v35.0.0 ('All The Love In The World') 64-bit
    Writing library             : libebml v1.3.9 + libmatroska v1.5.2
    
    Video
    ID                          : 2
    Format                      : AVC
    Format/Info                 : Advanced Video Codec
    Format profile              : [email protected]
    Format settings             : CABAC / 5 Ref Frames
    Format settings, CABAC      : Yes
    Format settings, Reference  : 5 frames
    Codec ID                    : V_MPEG4/ISO/AVC
    Duration                    : 1 h 29 min
    Bit rate                    : 4 557 kb/s
    Width                       : 1 912 pixels
    Height                      : 800 pixels
    Display aspect ratio        : 2.40:1
    Frame rate mode             : Constant
    Frame rate                  : 23.976 FPS
    Color space                 : YUV
    Chroma subsampling          : 4:2:0
    Bit depth                   : 8 bits
    Scan type                   : Progressive
    Bits/(Pixel*Frame)          : 0.124
    Stream size                 : 2.84 GiB (92%)
    Language                    : English
    Default                     : Yes
    Forced                      : No
    Color range                 : Limited
    Color primaries             : BT.709
    Transfer characteristics    : BT.709
    Matrix coefficients         : BT.709
    
    Audio
    ID                          : 1
    Format                      : AC-3
    Format/Info                 : Audio Coding 3
    Commercial name             : Dolby Digital
    Codec ID                    : A_AC3
    Duration                    : 1 h 29 min
    Bit rate mode               : Constant
    Bit rate                    : 384 kb/s
    Channel(s)                  : 6 channels
    Channel layout              : L R C LFE Ls Rs
    Sampling rate               : 48.0 kHz
    Frame rate                  : 31.250 FPS (1536 SPF)
    Compression mode            : Lossy
    Delay relative to video     : -42 ms
    Stream size                 : 245 MiB (8%)
    Language                    : English
    Service kind                : Complete Main
    Default                     : Yes
    Forced                      : No
    
    Menu
    00:00:00.000                : en:1
    00:07:42.000                : en:2
    00:19:21.000                : en:3
    00:30:03.000                : en:4
    00:40:27.000                : en:5
    00:50:35.000                : en:6
    01:00:42.000                : en:7
    01:10:12.000                : en:8
    01:17:54.000                : en:9
    01:24:22.000                : en:10
    Download - Mirror 1:
    Download - Mirror 2:
     
  2. Loading...


Share This Page