Google Drive The.Last.Castle.2001.1080p.BluRay.DD+5.1.x264-iFT

Discussion in 'BDRip | 720p/1080p' started by DDLbase, Jun 1, 2021.

  1. DDLbase

    DDLbase Administrator Staff Member

    [​IMG]

    Rating: 7.0/10 based on 74.160 user ratings

    Genres: Action, Drama, Thriller

    A court-martialed General rallies together twelve hundred inmates to rise against a corrupt and sadistic warden.

    [​IMG]
    Code:
    General
    Unique ID                   : 230976375964076908909074040260984844567 (0xADC46E90716B8E40CA305D7DC8A83117)
    Complete name               : The.Last.Castle.2001.1080p.BluRay.DD+5.1.x264-iFT.mkv
    Format                      : Matroska
    Format version              : Version 4
    File size                   : 17.9 GiB
    Duration                    : 2 h 11 min
    Overall bit rate            : 19.5 Mb/s
    Movie name                  : The.Last.Castle.2001.1080p.BluRay.DD+5.1.x264-iFT
    Encoded date                : UTC 2021-05-28 14:01:36
    Writing application         : mkvmerge v57.0.0 ('Till The End') 64-bit
    Writing library             : libebml v1.4.2 + libmatroska v1.6.4
    
    Video
    ID                          : 1
    Format                      : AVC
    Format/Info                 : Advanced Video Codec
    Format profile              : [email protected]
    Format settings             : CABAC / 5 Ref Frames
    Format settings, CABAC      : Yes
    Format settings, Reference  : 5 frames
    Codec ID                    : V_MPEG4/ISO/AVC
    Duration                    : 2 h 11 min
    Bit rate                    : 18.2 Mb/s
    Width                       : 1 920 pixels
    Height                      : 800 pixels
    Display aspect ratio        : 2.40:1
    Frame rate mode             : Constant
    Frame rate                  : 23.976 (24000/1001) FPS
    Color space                 : YUV
    Chroma subsampling          : 4:2:0
    Bit depth                   : 8 bits
    Scan type                   : Progressive
    Bits/(Pixel*Frame)          : 0.493
    Stream size                 : 16.6 GiB (93%)
    Writing library             : x264 core 161 r3048+58M ~ Encoded by Mocunaman in Portugal
    Encoding settings           : cabac=1 / ref=5 / deblock=1:-3:-3 / analyse=0x3:0x113 / me=umh / subme=11 / psy=1 / fade_compensate=0.00 / psy_rd=1.05:0.00 / mixed_ref=1 / me_range=32 / chroma_me=1 / trellis=2 / 8x8dct=1 / cqm=0 / deadzone=21,11 / fast_pskip=0 / chroma_qp_offset=-2 / threads=25 / lookahead_threads=6 / sliced_threads=0 / nr=0 / decimate=0 / interlaced=0 / bluray_compat=0 / constrained_intra=0 / fgo=0 / bframes=10 / b_pyramid=2 / b_adapt=2 / b_bias=0 / direct=3 / weightb=1 / open_gop=0 / weightp=2 / keyint=250 / keyint_min=23 / scenecut=40 / intra_refresh=0 / rc_lookahead=60 / rc=crf / mbtree=0 / crf=18.0000 / qcomp=0.65 / qpmin=0:0:0 / qpmax=69:69:69 / qpstep=4 / vbv_maxrate=62500 / vbv_bufsize=78125 / crf_max=0.0 / nal_hrd=none / filler=0 / ip_ratio=1.30 / pb_ratio=1.20 / aq=3:0.70 / aq-sensitivity=10.00 / aq-factor=1.00:1.00:1.00 / aq2=0 / aq3=0 / zones=18048,20568,crf=17/45363,51603,crf=17/60170,62483,crf=17/63041,67098,crf=17.5/73434,74010,crf=17.5/82083,83043,crf=17.5/133851,136669,crf=17.5/153877,156325,crf=17.5
    Language                    : English
    Default                     : Yes
    Forced                      : No
    Color range                 : Limited
    Color primaries             : BT.709
    Transfer characteristics    : BT.709
    Matrix coefficients         : BT.709
    
    Audio #1
    ID                          : 2
    Format                      : E-AC-3
    Format/Info                 : Enhanced AC-3
    Commercial name             : Dolby Digital Plus
    Codec ID                    : A_EAC3
    Duration                    : 2 h 11 min
    Bit rate mode               : Constant
    Bit rate                    : 1 024 kb/s
    Channel(s)                  : 6 channels
    Channel layout              : L R C LFE Ls Rs
    Sampling rate               : 48.0 kHz
    Frame rate                  : 31.250 FPS (1536 SPF)
    Compression mode            : Lossy
    Stream size                 : 961 MiB (5%)
    Title                       : E-AC3 DD+5.1 1024kbs
    Language                    : English
    Service kind                : Complete Main
    Default                     : Yes
    Forced                      : No
    
    Audio #2
    ID                          : 3
    Format                      : AC-3
    Format/Info                 : Audio Coding 3
    Commercial name             : Dolby Digital
    Codec ID                    : A_AC3
    Duration                    : 2 h 11 min
    Bit rate mode               : Constant
    Bit rate                    : 224 kb/s
    Channel(s)                  : 2 channels
    Channel layout              : L R
    Sampling rate               : 48.0 kHz
    Frame rate                  : 31.250 FPS (1536 SPF)
    Compression mode            : Lossy
    Stream size                 : 210 MiB (1%)
    Title                       : Commentary with director Rod Lurie
    Language                    : English
    Service kind                : Complete Main
    Default                     : No
    Forced                      : No
    
    Text #1
    ID                          : 4
    Format                      : UTF-8
    Codec ID                    : S_TEXT/UTF8
    Codec ID/Info               : UTF-8 Plain Text
    Duration                    : 2 h 4 min
    Bit rate                    : 56 b/s
    Count of elements           : 1533
    Stream size                 : 51.6 KiB (0%)
    Title                       : Full
    Language                    : English
    Default                     : No
    Forced                      : No
    
    Text #2
    ID                          : 5
    Format                      : UTF-8
    Codec ID                    : S_TEXT/UTF8
    Codec ID/Info               : UTF-8 Plain Text
    Duration                    : 2 h 10 min
    Bit rate                    : 63 b/s
    Count of elements           : 1734
    Stream size                 : 61.0 KiB (0%)
    Title                       : SDH
    Language                    : English
    Default                     : No
    Forced                      : No
    
    Text #3
    ID                          : 6
    Format                      : UTF-8
    Codec ID                    : S_TEXT/UTF8
    Codec ID/Info               : UTF-8 Plain Text
    Duration                    : 2 h 8 min
    Bit rate                    : 107 b/s
    Count of elements           : 2141
    Stream size                 : 102 KiB (0%)
    Title                       : Commentary with director Rod Lurie
    Language                    : English
    Default                     : No
    Forced                      : No
    
    Text #4
    ID                          : 7
    Format                      : UTF-8
    Codec ID                    : S_TEXT/UTF8
    Codec ID/Info               : UTF-8 Plain Text
    Duration                    : 2 h 4 min
    Bit rate                    : 53 b/s
    Count of elements           : 1406
    Stream size                 : 48.8 KiB (0%)
    Title                       : Full
    Language                    : French
    Default                     : No
    Forced                      : No
    
    Text #5
    ID                          : 8
    Format                      : UTF-8
    Codec ID                    : S_TEXT/UTF8
    Codec ID/Info               : UTF-8 Plain Text
    Duration                    : 2 h 11 min
    Bit rate                    : 97 b/s
    Count of elements           : 2140
    Stream size                 : 93.8 KiB (0%)
    Title                       : Commentary with director Rod Lurie
    Language                    : French
    Default                     : No
    Forced                      : No
    
    Text #6
    ID                          : 9
    Format                      : PGS
    Muxing mode                 : zlib
    Codec ID                    : S_HDMV/PGS
    Codec ID/Info               : Picture based subtitle format used on BDs/HD-DVDs
    Duration                    : 2 h 5 min
    Bit rate                    : 38.4 kb/s
    Count of elements           : 2988
    Stream size                 : 34.4 MiB (0%)
    Language                    : German
    Default                     : No
    Forced                      : No
    
    Text #7
    ID                          : 10
    Format                      : PGS
    Muxing mode                 : zlib
    Codec ID                    : S_HDMV/PGS
    Codec ID/Info               : Picture based subtitle format used on BDs/HD-DVDs
    Duration                    : 2 h 5 min
    Bit rate                    : 20.0 kb/s
    Count of elements           : 2632
    Stream size                 : 17.9 MiB (0%)
    Language                    : Japanese
    Default                     : No
    Forced                      : No
    
    Text #8
    ID                          : 11
    Format                      : PGS
    Muxing mode                 : zlib
    Codec ID                    : S_HDMV/PGS
    Codec ID/Info               : Picture based subtitle format used on BDs/HD-DVDs
    Duration                    : 2 h 11 min
    Bit rate                    : 61.9 kb/s
    Count of elements           : 4205
    Stream size                 : 58.0 MiB (0%)
    Title                       : Commentary with director Rod Lurie
    Language                    : German
    Default                     : No
    Forced                      : No
    
    Text #9
    ID                          : 12
    Format                      : PGS
    Muxing mode                 : zlib
    Codec ID                    : S_HDMV/PGS
    Codec ID/Info               : Picture based subtitle format used on BDs/HD-DVDs
    Duration                    : 2 h 8 min
    Bit rate                    : 45.7 kb/s
    Count of elements           : 3284
    Stream size                 : 42.1 MiB (0%)
    Title                       : Commentary with director Rod Lurie
    Language                    : Japanese
    Default                     : No
    Forced                      : No
    
    Menu
    00:00:00.000                : The Castle (Main Title)
    00:06:02.195                : Prisoner Irwin
    00:13:37.233                : One Basketball
    00:17:54.323                : Rubber Bullets
    00:23:08.387                : Visitation
    00:28:11.022                : A Proper Salute
    00:35:48.437                : Rock and Roll Detail
    00:43:26.312                : The Bookkeeper
    00:46:38.587                : Building a Castle Wall
    00:52:44.369                : Playing Soldier
    00:57:43.710                : A Tribute to Aguilar
    01:02:39.172                : Resignation Requested
    01:07:28.502                : Hostage Situation
    01:14:04.440                : Chess
    01:19:02.821                : The Snitch
    01:25:22.534                : Capture the Flag
    01:32:15.738                : Ready to Play
    01:37:12.701                : The Yard
    01:43:13.562                : Phase 1: Deploy Troops
    01:46:37.266                : Phase 2: Water Cannon
    01:49:19.594                : Phase 3: Airborne
    01:56:00.620                : It's Over
    01:59:52.810                : Give Me My Flag
    02:05:57.592                : End Credits
    Download - Mirror 1:
    Download - Mirror 2:
     
  2. Loading...


Share This Page