Google Drive The.Last.Starfighter.1984.REMASTERED.1080p.BluRay.x264-MiMiC

Discussion in 'BDRip | 720p/1080p' started by DDLbase, Jan 26, 2021.

  1. DDLbase

    DDLbase Administrator Staff Member

    [​IMG]

    Rating: 6.8/10 based on 38,398 user ratings

    Genres: Action, Adventure, Sci-Fi

    Video game expert Alex Rogan finds himself transported to another planet after conquering The Last Starfighter video game only to find out it was just a test. He was recruited to join the team of best starfighters to defend their world from the attack.

    [​IMG]
    Code:
    General
    Unique ID                   : 332800444656268665204490713783118032490 (0xFA5F08C078D44CDB86A7EADCB6736E6A)
    Complete name               : The.Last.Starfighter.1984.REMASTERED.1080p.BluRay.x264-MiMiC.mkv
    Format                      : Matroska
    Format version              : Version 4
    File size                   : 18.6 GiB
    Duration                    : 1 h 40 min
    Overall bit rate mode       : Variable
    Overall bit rate            : 26.5 Mb/s
    Encoded date                : UTC 2021-01-12 21:52:23
    Writing application         : mkvmerge v50.0.0 ('Awakenings') 64-bit
    Writing library             : libebml v1.4.0 + libmatroska v1.6.2
    
    Video
    ID                          : 1
    Format                      : AVC
    Format/Info                 : Advanced Video Codec
    Format profile              : [email protected]
    Format settings             : CABAC / 5 Ref Frames
    Format settings, CABAC      : Yes
    Format settings, Reference  : 5 frames
    Codec ID                    : V_MPEG4/ISO/AVC
    Duration                    : 1 h 40 min
    Bit rate                    : 19.1 Mb/s
    Width                       : 1 920 pixels
    Height                      : 820 pixels
    Display aspect ratio        : 2.35:1
    Frame rate mode             : Constant
    Frame rate                  : 23.976 (24000/1001) FPS
    Color space                 : YUV
    Chroma subsampling          : 4:2:0
    Bit depth                   : 8 bits
    Scan type                   : Progressive
    Bits/(Pixel*Frame)          : 0.505
    Stream size                 : 13.4 GiB (72%)
    Writing library             : x264 core 161 r3033 0d754ec
    Encoding settings           : cabac=1 / ref=5 / deblock=1:0:0 / analyse=0x3:0x133 / me=umh / subme=9 / psy=1 / psy_rd=1.00:0.00 / mixed_ref=1 / me_range=16 / chroma_me=1 / trellis=2 / 8x8dct=1 / cqm=0 / deadzone=21,11 / fast_pskip=0 / chroma_qp_offset=-2 / threads=18 / lookahead_threads=1 / sliced_threads=0 / nr=0 / decimate=0 / interlaced=0 / bluray_compat=0 / constrained_intra=0 / bframes=3 / b_pyramid=2 / b_adapt=2 / b_bias=0 / direct=3 / weightb=1 / open_gop=0 / weightp=2 / keyint=240 / keyint_min=23 / scenecut=40 / intra_refresh=0 / rc=crf / mbtree=0 / crf=20.6 / qcomp=0.60 / qpmin=0 / qpmax=69 / qpstep=4 / ip_ratio=1.40 / pb_ratio=1.30 / aq=1:1.00
    Default                     : Yes
    Forced                      : No
    Color range                 : Limited
    Matrix coefficients         : BT.709
    
    Audio #1
    ID                          : 2
    Format                      : DTS XLL
    Format/Info                 : Digital Theater Systems
    Commercial name             : DTS-HD Master Audio
    Codec ID                    : A_DTS
    Duration                    : 1 h 40 min
    Bit rate mode               : Variable
    Bit rate                    : 3 730 kb/s
    Channel(s)                  : 6 channels
    Channel layout              : C L R Ls Rs LFE
    Sampling rate               : 48.0 kHz
    Frame rate                  : 93.750 FPS (512 SPF)
    Bit depth                   : 24 bits
    Compression mode            : Lossless
    Stream size                 : 2.62 GiB (14%)
    Language                    : English
    Default                     : Yes
    Forced                      : No
    
    Audio #2
    ID                          : 3
    Format                      : DTS XLL
    Format/Info                 : Digital Theater Systems
    Commercial name             : DTS-HD Master Audio
    Codec ID                    : A_DTS
    Duration                    : 1 h 40 min
    Bit rate mode               : Variable
    Bit rate                    : 3 305 kb/s
    Channel(s)                  : 5 channels
    Channel layout              : C L R LFE Cb
    Sampling rate               : 48.0 kHz
    Frame rate                  : 93.750 FPS (512 SPF)
    Bit depth                   : 24 bits
    Compression mode            : Lossless
    Stream size                 : 2.32 GiB (12%)
    Title                       : 70mm 4.1 Mix
    Language                    : English
    Default                     : No
    Forced                      : No
    
    Audio #3
    ID                          : 4
    Format                      : AAC LC
    Format/Info                 : Advanced Audio Codec Low Complexity
    Codec ID                    : A_AAC-2
    Duration                    : 1 h 40 min
    Bit rate                    : 112 kb/s
    Channel(s)                  : 2 channels
    Channel layout              : L R
    Sampling rate               : 48.0 kHz
    Frame rate                  : 46.875 FPS (1024 SPF)
    Compression mode            : Lossy
    Delay relative to video     : 20 ms
    Stream size                 : 80.7 MiB (0%)
    Title                       : Commentary by Lance Guest and Jackson Guest
    Language                    : English
    Default                     : No
    Forced                      : No
    
    Audio #4
    ID                          : 5
    Format                      : AAC LC
    Format/Info                 : Advanced Audio Codec Low Complexity
    Codec ID                    : A_AAC-2
    Duration                    : 1 h 40 min
    Bit rate                    : 156 kb/s
    Channel(s)                  : 2 channels
    Channel layout              : L R
    Sampling rate               : 48.0 kHz
    Frame rate                  : 46.875 FPS (1024 SPF)
    Compression mode            : Lossy
    Delay relative to video     : 20 ms
    Stream size                 : 112 MiB (1%)
    Title                       : Commentary by Nick Castle and Ron Cobb
    Language                    : English
    Default                     : No
    Forced                      : No
    
    Audio #5
    ID                          : 6
    Format                      : AAC LC
    Format/Info                 : Advanced Audio Codec Low Complexity
    Codec ID                    : A_AAC-2
    Duration                    : 1 h 40 min
    Bit rate                    : 110 kb/s
    Channel(s)                  : 2 channels
    Channel layout              : L R
    Sampling rate               : 48.0 kHz
    Frame rate                  : 46.875 FPS (1024 SPF)
    Compression mode            : Lossy
    Delay relative to video     : 20 ms
    Stream size                 : 78.9 MiB (0%)
    Title                       : Commentary by Mike White
    Language                    : English
    Default                     : No
    Forced                      : No
    
    Text
    ID                          : 7
    Format                      : PGS
    Muxing mode                 : zlib
    Codec ID                    : S_HDMV/PGS
    Codec ID/Info               : Picture based subtitle format used on BDs/HD-DVDs
    Duration                    : 1 h 34 min
    Bit rate                    : 36.2 kb/s
    Count of elements           : 2226
    Stream size                 : 24.4 MiB (0%)
    Language                    : English
    Default                     : No
    Forced                      : No
    
    Menu
    00:00:00.000                : en:Chapter 01
    00:08:07.237                : en:Chapter 02
    00:18:03.874                : en:Chapter 03
    00:26:19.787                : en:Chapter 04
    00:35:43.933                : en:Chapter 05
    00:43:09.378                : en:Chapter 06
    00:48:40.751                : en:Chapter 07
    00:57:34.284                : en:Chapter 08
    01:07:34.467                : en:Chapter 09
    01:16:27.166                : en:Chapter 10
    01:26:00.655                : en:Chapter 11
    01:29:15.141                : en:Chapter 12
    Download - Mirror 1:
    Download - Mirror 2:
     
  2. Loading...


Share This Page