Google Drive The League of Extraordinary Gentlemen (2003) 1080p Blu-Ray REMUX AVC DTS-HD MA 5.1 - playBD

Discussion in 'BD REMUX | 1080p' started by DDLbase, Nov 2, 2019.

  1. DDLbase

    DDLbase Administrator Staff Member

    [​IMG]

    The League of Extraordinary Gentlemen (2003)

    [​IMG] 5.8/10
    [​IMG] 158,704

    Plot Summary

    The League of Extraordinary Gentlemen, also promoted as LXG, is a 2003 steampunk-dieselpunk superhero film loosely based on the first volume of the comic book series of the same name by Alan Moore and Kevin O'Neill. It was released on July 11, 2003, in the United States, and distributed by 20th Century Fox. It was directed by Stephen Norrington and starred Sean Connery (in his final live-action film role to date), Naseeruddin Shah, Peta Wilson, Tony Curran, Stuart Townsend, Shane West, Jason Flemyng and Richard Roxburgh.

    As with the comic book source material, the film features prominent pastiche and crossover themes set in the late 19th century. It features an assortment of fictional literary characters appropriate to the period who act as Victorian Era superheroes. It draws on the works of Jules Verne, H. G. Wells, Bram Stoker, Sir Arthur Conan Doyle, H. Rider Haggard, Ian Fleming, Herman Melville, Oscar Wilde, Robert Louis Stevenson, Edgar Allan Poe, Gaston Leroux and Mark Twain, albeit all adapted for the film.
    The film grossed over $175 million worldwide at the box office, rental revenue of $48.6 million, and DVD sales as of 2003 at $36.4 million.

    Movie Info
    • Rating: PG-13
    • Genre: Action, Adventure, Fantasy, Sci-Fi
    • Directed By: Stephen Norrington
    • Written By: Alan Moore (comic books), Kevin O'Neill (comic books), James Robinson (screenplay)
    • Starring: Sean Connery, Naseeruddin Shah, Peta Wilson, Tony Curran
    • Release Date: 11 Jul 2003
    • Runtime: 110 min
    • On Disk/Streaming: 16 Dec 2003
    • Box Office (USA): $66,327,144
    • Awards: 12 nominations.
    • Studio: 20th Century Fox
    [​IMG]
    [​IMG]
    [​IMG]
    [​IMG]
    [​IMG]
    [​IMG]
    [​IMG]
    [​IMG]
    [​IMG]
    [​IMG]
    [​IMG]
    [​IMG]
    Code:
    General
    Unique ID                                : 265472491352780331507099304622071138407 (0xC7B8245D6FF32D59E202DBB8BB06C867)
    Complete name                            : The.League.of.Extraordinary.Gentlemen.2003.1080p.Blu-ray.REMUX.AVC.DTS-HD.MA.5.1-playBD.mkv
    Format                                   : Matroska
    Format version                           : Version 4 / Version 2
    File size                                : 15.9 GiB
    Duration                                 : 1 h 50 min
    Overall bit rate                         : 20.7 Mb/s
    Encoded date                             : UTC 2018-11-24 18:00:31
    Writing application                      : mkvmerge v28.0.0 ('Voice In My Head') 64-bit
    Writing library                          : libebml v1.3.6 + libmatroska v1.4.9
    
    Video
    ID                                       : 1
    Format                                   : AVC
    Format/Info                              : Advanced Video Codec
    Format profile                           : [email protected]
    Format settings                          : CABAC / 2 Ref Frames
    Format settings, CABAC                   : Yes
    Format settings, ReFrames                : 2 frames
    Codec ID                                 : V_MPEG4/ISO/AVC
    Duration                                 : 1 h 50 min
    Bit rate                                 : 16.4 Mb/s
    Width                                    : 1 920 pixels
    Height                                   : 1 080 pixels
    Display aspect ratio                     : 16:9
    Frame rate mode                          : Constant
    Frame rate                               : 23.976 (24000/1001) FPS
    Color space                              : YUV
    Chroma subsampling                       : 4:2:0
    Bit depth                                : 8 bits
    Scan type                                : Progressive
    Bits/(Pixel*Frame)                       : 0.331
    Stream size                              : 12.6 GiB (79%)
    Default                                  : Yes
    Forced                                   : No
    
    Audio
    ID                                       : 2
    Format                                   : DTS
    Format/Info                              : Digital Theater Systems
    Format profile                           : MA / Core
    Codec ID                                 : A_DTS
    Duration                                 : 1 h 50 min
    Bit rate mode                            : Variable / Constant
    Bit rate                                 : 4 259 kb/s / 1 509 kb/s
    Channel(s)                               : 6 channels
    Channel positions                        : Front: L C R, Side: L R, LFE
    Sampling rate                            : 48.0 kHz
    Frame rate                               : 93.750 FPS (512 SPF)
    Bit depth                                : 24 bits
    Compression mode                         : Lossless / Lossy
    Stream size                              : 3.28 GiB (21%)
    Language                                 : English
    Default                                  : Yes
    Forced                                   : No
    
    Text #1
    ID                                       : 3
    Format                                   : PGS
    Muxing mode                              : zlib
    Codec ID                                 : S_HDMV/PGS
    Codec ID/Info                            : Picture based subtitle format used on BDs/HD-DVDs
    Duration                                 : 1 h 45 min
    Bit rate                                 : 41.1 kb/s
    Count of elements                        : 1619
    Stream size                              : 31.1 MiB (0%)
    Language                                 : English
    Default                                  : No
    Forced                                   : No
    
    Text #2
    ID                                       : 4
    Format                                   : UTF-8
    Codec ID                                 : S_TEXT/UTF8
    Codec ID/Info                            : UTF-8 Plain Text
    Duration                                 : 1 h 49 min
    Bit rate                                 : 37 b/s
    Count of elements                        : 881
    Stream size                              : 30.4 KiB (0%)
    Language                                 : Romanian
    Default                                  : Yes
    Forced                                   : No
    
    Text #3
    ID                                       : 5
    Format                                   : PGS
    Muxing mode                              : zlib
    Codec ID                                 : S_HDMV/PGS
    Codec ID/Info                            : Picture based subtitle format used on BDs/HD-DVDs
    Duration                                 : 1 h 41 min
    Bit rate                                 : 36.4 kb/s
    Count of elements                        : 1371
    Stream size                              : 26.4 MiB (0%)
    Language                                 : Spanish
    Default                                  : No
    Forced                                   : No
    
    Text #4
    ID                                       : 6
    Format                                   : PGS
    Muxing mode                              : zlib
    Codec ID                                 : S_HDMV/PGS
    Codec ID/Info                            : Picture based subtitle format used on BDs/HD-DVDs
    Duration                                 : 49 min 13 s
    Bit rate                                 : 1 352 b/s
    Count of elements                        : 32
    Stream size                              : 488 KiB (0%)
    Language                                 : Spanish
    Default                                  : No
    Forced                                   : No
    
    Text #5
    ID                                       : 7
    Format                                   : PGS
    Muxing mode                              : zlib
    Codec ID                                 : S_HDMV/PGS
    Codec ID/Info                            : Picture based subtitle format used on BDs/HD-DVDs
    Duration                                 : 1 h 14 min
    Bit rate                                 : 1 647 b/s
    Count of elements                        : 47
    Stream size                              : 901 KiB (0%)
    Language                                 : French
    Default                                  : No
    Forced                                   : No
    
    Text #6
    ID                                       : 8
    Format                                   : PGS
    Muxing mode                              : zlib
    Codec ID                                 : S_HDMV/PGS
    Codec ID/Info                            : Picture based subtitle format used on BDs/HD-DVDs
    Duration                                 : 1 h 40 min
    Bit rate                                 : 8 632 b/s
    Count of elements                        : 138
    Stream size                              : 6.21 MiB (0%)
    Language                                 : English
    Default                                  : No
    Forced                                   : No
    
    Menu
    00:00:00.000                             : :Chapter 01
    00:05:08.182                             : :Chapter 02
    00:09:09.674                             : :Chapter 03
    00:12:55.524                             : :Chapter 04
    00:20:43.116                             : :Chapter 05
    00:24:11.783                             : :Chapter 06
    00:28:44.264                             : :Chapter 07
    00:29:46.409                             : :Chapter 08
    00:33:04.816                             : :Chapter 09
    00:38:45.281                             : :Chapter 10
    00:40:52.116                             : :Chapter 11
    00:43:37.031                             : :Chapter 12
    00:47:54.288                             : :Chapter 13
    00:52:24.474                             : :Chapter 14
    01:01:12.210                             : :Chapter 15
    01:03:19.503                             : :Chapter 16
    01:05:58.788                             : :Chapter 17
    01:10:09.955                             : :Chapter 18
    01:12:54.077                             : :Chapter 19
    01:16:29.751                             : :Chapter 20
    01:18:42.175                             : :Chapter 21
    01:21:01.856                             : :Chapter 22
    01:26:49.871                             : :Chapter 23
    01:27:24.572                             : :Chapter 24
    01:29:17.351                             : :Chapter 25
    01:31:39.994                             : :Chapter 26
    01:33:44.160                             : :Chapter 27
    01:36:20.357                             : :Chapter 28
    01:37:59.873                             : :Chapter 29
    01:39:55.280                             : :Chapter 30
    01:42:08.622                             : :Chapter 31
    01:42:48.036                             : :Chapter 32
    Download:
     
  2. Loading...


Share This Page