Google Drive The.Legend.of.Bagger.Vance.2000.1080p.BluRay.DD+5.1.x264-iFT

Discussion in 'BDRip | 720p/1080p' started by DDLbase, Jun 3, 2021.

  1. DDLbase

    DDLbase Administrator Staff Member

    [​IMG]

    Rating: 6.7/10 based on 54,198 user ratings

    Genres: Drama, Fantasy, Sport

    A down-and-out golfer attempts to recover his game and his life with help from a mystical caddy.

    [​IMG]
    Code:
    General
    Unique ID                   : 135396843618825162460185562880195814956 (0x65DC7BC9F07E4B51C1C8A6992781E62C)
    Complete name               : The.Legend.of.Bagger.Vance.2000.1080p.BluRay.DD+5.1.x264-iFT.mkv
    Format                      : Matroska
    Format version              : Version 4
    File size                   : 16.9 GiB
    Duration                    : 2 h 6 min
    Overall bit rate            : 19.1 Mb/s
    Movie name                  : The.Legend.of.Bagger.Vance.2000.1080p.BluRay.DD+5.1.x264-iFT
    Encoded date                : UTC 2021-05-31 15:01:06
    Writing application         : mkvmerge v57.0.0 ('Till The End') 64-bit
    Writing library             : libebml v1.4.2 + libmatroska v1.6.4
    
    Video
    ID                          : 1
    Format                      : AVC
    Format/Info                 : Advanced Video Codec
    Format profile              : [email protected]
    Format settings             : CABAC / 4 Ref Frames
    Format settings, CABAC      : Yes
    Format settings, Reference  : 4 frames
    Codec ID                    : V_MPEG4/ISO/AVC
    Duration                    : 2 h 6 min
    Bit rate                    : 18.1 Mb/s
    Width                       : 1 920 pixels
    Height                      : 1 080 pixels
    Display aspect ratio        : 16:9
    Frame rate mode             : Constant
    Frame rate                  : 23.976 (24000/1001) FPS
    Color space                 : YUV
    Chroma subsampling          : 4:2:0
    Bit depth                   : 8 bits
    Scan type                   : Progressive
    Bits/(Pixel*Frame)          : 0.363
    Stream size                 : 16.0 GiB (95%)
    Writing library             : x264 core 161 r3048+58M ~ Encoded by Mocunaman in Portugal
    Encoding settings           : cabac=1 / ref=4 / deblock=1:-3:-3 / analyse=0x3:0x113 / me=umh / subme=11 / psy=1 / fade_compensate=0.00 / psy_rd=1.05:0.00 / mixed_ref=1 / me_range=32 / chroma_me=1 / trellis=2 / 8x8dct=1 / cqm=0 / deadzone=21,11 / fast_pskip=0 / chroma_qp_offset=-2 / threads=34 / lookahead_threads=8 / sliced_threads=0 / nr=0 / decimate=0 / interlaced=0 / bluray_compat=0 / constrained_intra=0 / fgo=0 / bframes=10 / b_pyramid=2 / b_adapt=2 / b_bias=0 / direct=3 / weightb=1 / open_gop=0 / weightp=2 / keyint=250 / keyint_min=23 / scenecut=40 / intra_refresh=0 / rc_lookahead=60 / rc=crf / mbtree=0 / crf=17.5000 / qcomp=0.63 / qpmin=0:0:0 / qpmax=69:69:69 / qpstep=4 / vbv_maxrate=62500 / vbv_bufsize=78125 / crf_max=0.0 / nal_hrd=none / filler=0 / ip_ratio=1.30 / pb_ratio=1.20 / aq=3:0.70 / aq-sensitivity=10.00 / aq-factor=1.00:1.00:1.00 / aq2=0 / aq3=0 / zones=6407,7031,crf=16.2,aq-strength=0.60/8205,11482,crf=16.2,aq-strength=0.60/11483,11826,crf=17/14058,14713,crf=16.5,aq-strength=0.60/15289,17336,crf=16.5/111648,112135,crf=16.5/117559,120396,crf=16.5/149172,172260,crf=16.5,aq-strength=0.60
    Language                    : English
    Default                     : Yes
    Forced                      : No
    Color range                 : Limited
    Color primaries             : BT.709
    Transfer characteristics    : BT.709
    Matrix coefficients         : BT.709
    
    Audio
    ID                          : 2
    Format                      : E-AC-3
    Format/Info                 : Enhanced AC-3
    Commercial name             : Dolby Digital Plus
    Codec ID                    : A_EAC3
    Duration                    : 2 h 6 min
    Bit rate mode               : Constant
    Bit rate                    : 1 024 kb/s
    Channel(s)                  : 6 channels
    Channel layout              : L R C LFE Ls Rs
    Sampling rate               : 48.0 kHz
    Frame rate                  : 31.250 FPS (1536 SPF)
    Compression mode            : Lossy
    Stream size                 : 927 MiB (5%)
    Title                       : E-AC3 DD+5.1 1024kbs
    Language                    : English
    Service kind                : Complete Main
    Default                     : Yes
    Forced                      : No
    
    Text #1
    ID                          : 3
    Format                      : UTF-8
    Codec ID                    : S_TEXT/UTF8
    Codec ID/Info               : UTF-8 Plain Text
    Duration                    : 1 h 57 min
    Bit rate                    : 60 b/s
    Count of elements           : 1293
    Stream size                 : 51.7 KiB (0%)
    Title                       : Full
    Language                    : English
    Default                     : No
    Forced                      : No
    
    Text #2
    ID                          : 4
    Format                      : UTF-8
    Codec ID                    : S_TEXT/UTF8
    Codec ID/Info               : UTF-8 Plain Text
    Duration                    : 1 h 57 min
    Bit rate                    : 67 b/s
    Count of elements           : 1516
    Stream size                 : 58.5 KiB (0%)
    Title                       : SDH
    Language                    : English
    Default                     : No
    Forced                      : No
    
    Menu
    00:00:00.000                : A Town Hero (Main Title)
    00:07:25.445                : After the War
    00:12:03.139                : The Greatest Exhibition Match
    00:20:55.504                : I Lost My Swing
    00:31:56.331                : Bagger Vance, the Name
    00:37:40.008                : God Bless Savannah
    00:42:22.457                : Storm's a Brewing
    00:48:35.996                : One True Authentic Swing
    00:52:22.306                : Promising Open Drive
    00:56:39.438                : Beach
    01:01:41.406                : An Answer for Everything
    01:07:42.934                : Just You and the Ball
    01:12:45.236                : The Field
    01:19:33.185                : Pure Determination
    01:23:41.558                : Hole in One
    01:28:18.418                : A New Match
    01:33:18.843                : The Drop
    01:43:09.141                : Penalty Stroke
    01:49:23.223                : Hardy Becomes a Caddy
    01:58:16.006                : My Place in the Field (End Credits)
    Download - Mirror 1:
    Download - Mirror 2:
     
  2. Loading...


Share This Page