Google Drive The.Lie.2018.1080p.AMZN.WEB-DL.DDP5.1.H.264-NTG

Discussion in 'Web-DL / Webrip | 1080p' started by DDLbase, Oct 6, 2020.

  1. DDLbase

    DDLbase Administrator Staff Member

    [​IMG]

    Rating: 5.2/10 based on 117 user ratings

    Genres: Drama, Horror, Mystery, Thriller

    A father and daughter are on their way to dance camp when they spot the girl’s best friend on the side of the road. When they stop to offer the friend a ride, their good intentions soon result in terrible consequences.

    [​IMG]
    Code:
    General
    Unique ID                   : 223463734344909855487426821787870794366 (0xA81D8CBC26799530664AA50B7D0B927E)
    Complete name               : The.Lie.2018.1080p.AMZN.WEB-DL.DDP5.1.H.264-NTG.mkv
    Format                      : Matroska
    Format version              : Version 4
    File size                   : 5.49 GiB
    Duration                    : 1 h 35 min
    Overall bit rate            : 8 269 kb/s
    Writing application         : mkvmerge v21.0.0 ('Tardigrades Will Inherit The Earth') 64-bit
    Writing library             : libebml v1.3.5 + libmatroska v1.4.8
    
    Video
    ID                          : 1
    Format                      : AVC
    Format/Info                 : Advanced Video Codec
    Format profile              : [email protected]
    Format settings             : CABAC / 4 Ref Frames
    Format settings, CABAC      : Yes
    Format settings, Reference  : 4 frames
    Codec ID                    : V_MPEG4/ISO/AVC
    Duration                    : 1 h 35 min
    Bit rate mode               : Constant
    Bit rate                    : 7 625 kb/s
    Nominal bit rate            : 10 000 kb/s
    Width                       : 1 920 pixels
    Height                      : 800 pixels
    Display aspect ratio        : 2.40:1
    Frame rate mode             : Constant
    Frame rate                  : 23.976 (24000/1001) FPS
    Color space                 : YUV
    Chroma subsampling          : 4:2:0
    Bit depth                   : 8 bits
    Scan type                   : Progressive
    Bits/(Pixel*Frame)          : 0.207
    Stream size                 : 5.06 GiB (92%)
    Default                     : Yes
    Forced                      : No
    Color range                 : Limited
    Color primaries             : BT.709
    Transfer characteristics    : BT.709
    Matrix coefficients         : BT.709
    
    Audio
    ID                          : 2
    Format                      : E-AC-3
    Format/Info                 : Enhanced AC-3
    Commercial name             : Dolby Digital Plus
    Codec ID                    : A_EAC3
    Duration                    : 1 h 35 min
    Bit rate mode               : Constant
    Bit rate                    : 640 kb/s
    Channel(s)                  : 6 channels
    Channel layout              : L R C LFE Ls Rs
    Sampling rate               : 48.0 kHz
    Frame rate                  : 31.250 FPS (1536 SPF)
    Compression mode            : Lossy
    Stream size                 : 435 MiB (8%)
    Language                    : English
    Service kind                : Complete Main
    Default                     : Yes
    Forced                      : No
    
    Text #1
    ID                          : 3
    Format                      : UTF-8
    Codec ID                    : S_TEXT/UTF8
    Codec ID/Info               : UTF-8 Plain Text
    Duration                    : 1 h 34 min
    Bit rate                    : 50 b/s
    Count of elements           : 1213
    Stream size                 : 34.7 KiB (0%)
    Title                       : SDH
    Language                    : English
    Default                     : No
    Forced                      : No
    
    Text #2
    ID                          : 4
    Format                      : UTF-8
    Codec ID                    : S_TEXT/UTF8
    Codec ID/Info               : UTF-8 Plain Text
    Duration                    : 1 h 34 min
    Bit rate                    : 60 b/s
    Count of elements           : 864
    Stream size                 : 41.7 KiB (0%)
    Language                    : Arabic
    Default                     : No
    Forced                      : No
    
    Text #3
    ID                          : 5
    Format                      : UTF-8
    Codec ID                    : S_TEXT/UTF8
    Codec ID/Info               : UTF-8 Plain Text
    Duration                    : 1 h 34 min
    Bit rate                    : 34 b/s
    Count of elements           : 872
    Stream size                 : 23.7 KiB (0%)
    Language                    : Danish
    Default                     : No
    Forced                      : No
    
    Text #4
    ID                          : 6
    Format                      : UTF-8
    Codec ID                    : S_TEXT/UTF8
    Codec ID/Info               : UTF-8 Plain Text
    Duration                    : 1 h 34 min
    Bit rate                    : 38 b/s
    Count of elements           : 763
    Stream size                 : 26.5 KiB (0%)
    Language                    : German
    Default                     : No
    Forced                      : No
    
    Text #5
    ID                          : 7
    Format                      : UTF-8
    Codec ID                    : S_TEXT/UTF8
    Codec ID/Info               : UTF-8 Plain Text
    Duration                    : 1 h 34 min
    Bit rate                    : 34 b/s
    Count of elements           : 871
    Stream size                 : 24.1 KiB (0%)
    Title                       : Latinoamérica
    Language                    : Spanish
    Default                     : No
    Forced                      : No
    
    Text #6
    ID                          : 8
    Format                      : UTF-8
    Codec ID                    : S_TEXT/UTF8
    Codec ID/Info               : UTF-8 Plain Text
    Duration                    : 1 h 34 min
    Bit rate                    : 35 b/s
    Count of elements           : 872
    Stream size                 : 24.6 KiB (0%)
    Title                       : España
    Language                    : Spanish
    Default                     : No
    Forced                      : No
    
    Text #7
    ID                          : 9
    Format                      : UTF-8
    Codec ID                    : S_TEXT/UTF8
    Codec ID/Info               : UTF-8 Plain Text
    Duration                    : 1 h 34 min
    Bit rate                    : 33 b/s
    Count of elements           : 875
    Stream size                 : 23.4 KiB (0%)
    Language                    : Finnish
    Default                     : No
    Forced                      : No
    
    Text #8
    ID                          : 10
    Format                      : UTF-8
    Codec ID                    : S_TEXT/UTF8
    Codec ID/Info               : UTF-8 Plain Text
    Duration                    : 1 h 34 min
    Bit rate                    : 37 b/s
    Count of elements           : 868
    Stream size                 : 25.7 KiB (0%)
    Language                    : French
    Default                     : No
    Forced                      : No
    
    Text #9
    ID                          : 11
    Format                      : UTF-8
    Codec ID                    : S_TEXT/UTF8
    Codec ID/Info               : UTF-8 Plain Text
    Duration                    : 1 h 34 min
    Bit rate                    : 58 b/s
    Count of elements           : 876
    Stream size                 : 40.5 KiB (0%)
    Language                    : Hebrew
    Default                     : No
    Forced                      : No
    
    Text #10
    ID                          : 12
    Format                      : UTF-8
    Codec ID                    : S_TEXT/UTF8
    Codec ID/Info               : UTF-8 Plain Text
    Duration                    : 1 h 34 min
    Bit rate                    : 88 b/s
    Count of elements           : 874
    Stream size                 : 61.5 KiB (0%)
    Language                    : Hindi
    Default                     : No
    Forced                      : No
    
    Text #11
    ID                          : 13
    Format                      : UTF-8
    Codec ID                    : S_TEXT/UTF8
    Codec ID/Info               : UTF-8 Plain Text
    Duration                    : 1 h 34 min
    Bit rate                    : 34 b/s
    Count of elements           : 874
    Stream size                 : 23.7 KiB (0%)
    Language                    : Indonesian
    Default                     : No
    Forced                      : No
    
    Text #12
    ID                          : 14
    Format                      : UTF-8
    Codec ID                    : S_TEXT/UTF8
    Codec ID/Info               : UTF-8 Plain Text
    Duration                    : 1 h 34 min
    Bit rate                    : 34 b/s
    Count of elements           : 873
    Stream size                 : 23.6 KiB (0%)
    Language                    : Italian
    Default                     : No
    Forced                      : No
    
    Text #13
    ID                          : 15
    Format                      : UTF-8
    Codec ID                    : S_TEXT/UTF8
    Codec ID/Info               : UTF-8 Plain Text
    Duration                    : 1 h 34 min
    Bit rate                    : 28 b/s
    Count of elements           : 927
    Stream size                 : 19.5 KiB (0%)
    Language                    : Japanese
    Default                     : No
    Forced                      : No
    
    Text #14
    ID                          : 16
    Format                      : UTF-8
    Codec ID                    : S_TEXT/UTF8
    Codec ID/Info               : UTF-8 Plain Text
    Duration                    : 1 h 34 min
    Bit rate                    : 47 b/s
    Count of elements           : 876
    Stream size                 : 33.0 KiB (0%)
    Language                    : Korean
    Default                     : No
    Forced                      : No
    
    Text #15
    ID                          : 17
    Format                      : UTF-8
    Codec ID                    : S_TEXT/UTF8
    Codec ID/Info               : UTF-8 Plain Text
    Duration                    : 1 h 34 min
    Bit rate                    : 35 b/s
    Count of elements           : 872
    Stream size                 : 24.4 KiB (0%)
    Language                    : Malay
    Default                     : No
    Forced                      : No
    
    Text #16
    ID                          : 18
    Format                      : UTF-8
    Codec ID                    : S_TEXT/UTF8
    Codec ID/Info               : UTF-8 Plain Text
    Duration                    : 1 h 34 min
    Bit rate                    : 35 b/s
    Count of elements           : 874
    Stream size                 : 24.8 KiB (0%)
    Language                    : Norwegian Bokmal
    Default                     : No
    Forced                      : No
    
    Text #17
    ID                          : 19
    Format                      : UTF-8
    Codec ID                    : S_TEXT/UTF8
    Codec ID/Info               : UTF-8 Plain Text
    Duration                    : 1 h 34 min
    Bit rate                    : 30 b/s
    Count of elements           : 871
    Stream size                 : 21.3 KiB (0%)
    Language                    : Dutch
    Default                     : No
    Forced                      : No
    
    Text #18
    ID                          : 20
    Format                      : UTF-8
    Codec ID                    : S_TEXT/UTF8
    Codec ID/Info               : UTF-8 Plain Text
    Duration                    : 1 h 34 min
    Bit rate                    : 33 b/s
    Count of elements           : 865
    Stream size                 : 23.0 KiB (0%)
    Language                    : Polish
    Default                     : No
    Forced                      : No
    
    Text #19
    ID                          : 21
    Format                      : UTF-8
    Codec ID                    : S_TEXT/UTF8
    Codec ID/Info               : UTF-8 Plain Text
    Duration                    : 1 h 34 min
    Bit rate                    : 35 b/s
    Count of elements           : 872
    Stream size                 : 24.3 KiB (0%)
    Title                       : Brasil
    Language                    : Portuguese
    Default                     : No
    Forced                      : No
    
    Text #20
    ID                          : 22
    Format                      : UTF-8
    Codec ID                    : S_TEXT/UTF8
    Codec ID/Info               : UTF-8 Plain Text
    Duration                    : 1 h 34 min
    Bit rate                    : 35 b/s
    Count of elements           : 874
    Stream size                 : 24.3 KiB (0%)
    Title                       : Portugal
    Language                    : Portuguese
    Default                     : No
    Forced                      : No
    
    Text #21
    ID                          : 23
    Format                      : UTF-8
    Codec ID                    : S_TEXT/UTF8
    Codec ID/Info               : UTF-8 Plain Text
    Duration                    : 1 h 34 min
    Bit rate                    : 59 b/s
    Count of elements           : 875
    Stream size                 : 40.9 KiB (0%)
    Language                    : Russian
    Default                     : No
    Forced                      : No
    
    Text #22
    ID                          : 24
    Format                      : UTF-8
    Codec ID                    : S_TEXT/UTF8
    Codec ID/Info               : UTF-8 Plain Text
    Duration                    : 1 h 34 min
    Bit rate                    : 33 b/s
    Count of elements           : 872
    Stream size                 : 23.3 KiB (0%)
    Language                    : Swedish
    Default                     : No
    Forced                      : No
    
    Text #23
    ID                          : 25
    Format                      : UTF-8
    Codec ID                    : S_TEXT/UTF8
    Codec ID/Info               : UTF-8 Plain Text
    Duration                    : 1 h 34 min
    Bit rate                    : 97 b/s
    Count of elements           : 876
    Stream size                 : 67.5 KiB (0%)
    Language                    : Tamil
    Default                     : No
    Forced                      : No
    
    Text #24
    ID                          : 26
    Format                      : UTF-8
    Codec ID                    : S_TEXT/UTF8
    Codec ID/Info               : UTF-8 Plain Text
    Duration                    : 1 h 34 min
    Bit rate                    : 94 b/s
    Count of elements           : 875
    Stream size                 : 65.4 KiB (0%)
    Language                    : Telugu
    Default                     : No
    Forced                      : No
    
    Text #25
    ID                          : 27
    Format                      : UTF-8
    Codec ID                    : S_TEXT/UTF8
    Codec ID/Info               : UTF-8 Plain Text
    Duration                    : 1 h 34 min
    Bit rate                    : 88 b/s
    Count of elements           : 876
    Stream size                 : 61.1 KiB (0%)
    Language                    : Thai
    Default                     : No
    Forced                      : No
    
    Text #26
    ID                          : 28
    Format                      : UTF-8
    Codec ID                    : S_TEXT/UTF8
    Codec ID/Info               : UTF-8 Plain Text
    Duration                    : 1 h 34 min
    Bit rate                    : 32 b/s
    Count of elements           : 865
    Stream size                 : 22.2 KiB (0%)
    Language                    : Tagalog
    Default                     : No
    Forced                      : No
    
    Text #27
    ID                          : 29
    Format                      : UTF-8
    Codec ID                    : S_TEXT/UTF8
    Codec ID/Info               : UTF-8 Plain Text
    Duration                    : 1 h 34 min
    Bit rate                    : 36 b/s
    Count of elements           : 875
    Stream size                 : 25.2 KiB (0%)
    Language                    : Turkish
    Default                     : No
    Forced                      : No
    
    Text #28
    ID                          : 30
    Format                      : UTF-8
    Codec ID                    : S_TEXT/UTF8
    Codec ID/Info               : UTF-8 Plain Text
    Duration                    : 1 h 34 min
    Bit rate                    : 35 b/s
    Count of elements           : 874
    Stream size                 : 24.6 KiB (0%)
    Title                       : 简体
    Language                    : Chinese
    Default                     : No
    Forced                      : No
    
    Text #29
    ID                          : 31
    Format                      : UTF-8
    Codec ID                    : S_TEXT/UTF8
    Codec ID/Info               : UTF-8 Plain Text
    Duration                    : 1 h 34 min
    Bit rate                    : 34 b/s
    Count of elements           : 876
    Stream size                 : 23.6 KiB (0%)
    Title                       : 繁體
    Language                    : Chinese
    Default                     : No
    Forced                      : No
    
    Menu
    00:00:00.000                : en:Amazon Original
    00:00:21.000                : en:Memories of Kayla
    00:01:25.000                : en:Title Sequence
    00:01:30.000                : en:Kayla is in a car
    00:03:30.000                : en:Kayla comes to dad's place
    00:05:19.000                : en:Kayla finds Brittany
    00:07:24.000                : en:Jay pulls over his car
    00:09:20.000                : en:Jay looks for Brittany
    00:12:10.000                : en:Jay comes to Rebecca's office
    00:14:04.000                : en:Kayla is at mom's home
    00:16:56.000                : en:Jay and Rebecca talk about Kayla
    00:21:35.000                : en:Making a breakfast
    00:26:58.000                : en:Rebecca is alone at home
    00:32:04.000                : en:Kayla watches TV
    00:35:58.000                : en:Sam looks for Britanny
    00:37:56.000                : en:Rebecca cares Jay
    00:39:33.000                : en:Rebecca talks to Kenji
    00:41:10.000                : en:Kayla needs a help
    00:44:23.000                : en:Kenji comes by Rebecca's house
    00:48:28.000                : en:Kayla asks Jay to stay
    00:52:13.000                : en:Sam gets home
    00:53:45.000                : en:Jay backs to his place
    00:56:42.000                : en:Kenji has questions
    00:58:32.000                : en:Sam finds out Kayla
    01:01:44.000                : en:Kayla faints
    01:04:07.000                : en:The bus stop
    01:05:30.000                : en:Kenji brings something
    01:09:43.000                : en:After Kayla gets sleep
    01:17:03.000                : en:Rebecca and Jay are at home
    01:21:28.000                : en:Another lie
    01:25:14.000                : en:Please don't leave me
    01:28:45.000                : en:End Credits
    Download - Mirror 1:
    Download - Mirror 2:
     
  2. Loading...


Share This Page