Google Drive The.Light.Between.Oceans.2016.1080p.BluRay.x264-GECKOS

Discussion in 'BDRip | 720p/1080p' started by DDLbase, Jun 29, 2020.

  1. DDLbase

    DDLbase Administrator Staff Member

    [​IMG]

    Rating: 7.2/10 based on 50,122 user ratings

    Genres: Drama, Romance

    A lighthouse keeper and his wife living off the coast of Western Australia raise a baby they rescue from a drifting rowing boat.

    [​IMG]
    Code:
    General
    Unique ID                   : 182651824323042806674350351783543783703 (0x896976379CA68C59AF49A2B207954117)
    Complete name               : The.Light.Between.Oceans.2016.1080p.BluRay.x264-GECKOS.mkv
    Format                      : Matroska
    Format version              : Version 4
    File size                   : 9.84 GiB
    Duration                    : 2 h 12 min
    Overall bit rate            : 10.6 Mb/s
    Encoded date                : UTC 2017-01-06 02:17:59
    Writing application         : mkvmerge v8.3.0 ('Over the Horizon') 64bit
    Writing library             : libebml v1.3.1 + libmatroska v1.4.2
    
    Video
    ID                          : 1
    Format                      : AVC
    Format/Info                 : Advanced Video Codec
    Format profile              : [email protected]
    Format settings             : CABAC / 5 Ref Frames
    Format settings, CABAC      : Yes
    Format settings, Reference  : 5 frames
    Codec ID                    : V_MPEG4/ISO/AVC
    Duration                    : 2 h 12 min
    Bit rate                    : 9 093 kb/s
    Width                       : 1 920 pixels
    Height                      : 800 pixels
    Display aspect ratio        : 2.40:1
    Frame rate mode             : Constant
    Frame rate                  : 23.976 FPS
    Color space                 : YUV
    Chroma subsampling          : 4:2:0
    Bit depth                   : 8 bits
    Scan type                   : Progressive
    Bits/(Pixel*Frame)          : 0.247
    Stream size                 : 8.43 GiB (86%)
    Writing library             : x264 core 148 r2705 3f5ed56
    Encoding settings           : cabac=1 / ref=5 / deblock=1:0:0 / analyse=0x3:0x133 / me=umh / subme=7 / psy=1 / psy_rd=1.00:0.00 / mixed_ref=1 / me_range=16 / chroma_me=1 / trellis=1 / 8x8dct=1 / cqm=0 / deadzone=21,11 / fast_pskip=0 / chroma_qp_offset=-2 / threads=24 / lookahead_threads=4 / sliced_threads=0 / nr=0 / decimate=1 / interlaced=0 / bluray_compat=0 / constrained_intra=0 / bframes=3 / b_pyramid=2 / b_adapt=1 / b_bias=0 / direct=1 / weightb=1 / open_gop=0 / weightp=2 / keyint=250 / keyint_min=23 / scenecut=40 / intra_refresh=0 / rc_lookahead=40 / rc=2pass / mbtree=1 / bitrate=9093 / ratetol=1.0 / qcomp=0.60 / qpmin=0 / qpmax=69 / qpstep=4 / cplxblur=20.0 / qblur=0.5 / ip_ratio=1.40 / aq=1:1.00
    Language                    : English
    Default                     : Yes
    Forced                      : No
    
    Audio
    ID                          : 2
    Format                      : DTS
    Format/Info                 : Digital Theater Systems
    Codec ID                    : A_DTS
    Duration                    : 2 h 12 min
    Bit rate mode               : Constant
    Bit rate                    : 1 509 kb/s
    Channel(s)                  : 6 channels
    Channel layout              : C L R Ls Rs LFE
    Sampling rate               : 48.0 kHz
    Frame rate                  : 93.750 FPS (512 SPF)
    Bit depth                   : 24 bits
    Compression mode            : Lossy
    Stream size                 : 1.40 GiB (14%)
    Language                    : English
    Default                     : Yes
    Forced                      : No
    
    Menu
    00:00:00.000                : en:00:00:00.000
    00:04:55.128                : en:00:04:55.128
    00:11:38.531                : en:00:11:38.531
    00:17:30.007                : en:00:17:30.007
    00:23:07.469                : en:00:23:07.469
    00:29:35.816                : en:00:29:35.816
    00:35:21.953                : en:00:35:21.953
    00:42:35.678                : en:00:42:35.678
    00:49:51.822                : en:00:49:51.822
    00:55:14.186                : en:00:55:14.186
    00:59:26.062                : en:00:59:26.062
    01:05:48.027                : en:01:05:48.027
    01:10:52.957                : en:01:10:52.957
    01:13:14.724                : en:01:13:14.724
    01:22:34.032                : en:01:22:34.032
    01:31:42.956                : en:01:31:42.956
    01:42:29.101                : en:01:42:29.101
    01:51:31.018                : en:01:51:31.018
    02:01:29.324                : en:02:01:29.324
    02:07:08.621                : en:02:07:08.621
    Download:
     
  2. Loading...


Share This Page