Google Drive The.Losers.2010.1080p.Bluray.x264-CBGB

Discussion in 'BDRip | 720p/1080p' started by DDLbase, Jun 3, 2021.

  1. DDLbase

    DDLbase Administrator Staff Member

    [​IMG]

    Rating: 6.3/10 based on 93,074 user ratings

    Genres: Action, Adventure, Crime

    A CIA special forces team are betrayed and left for dead by their superiors, galvanizing them to mount an offensive on the CIA.

    [​IMG]
    Code:
    General
    Unique ID                   : 230978843566542555402577467933392064467 (0xADC4E839F702A0629199C2D5ACEB4FD3)
    Complete name               : The.Losers.2010.1080p.Bluray.x264-CBGB.mkv
    Format                      : Matroska
    Format version              : Version 2
    File size                   : 6.56 GiB
    Duration                    : 1 h 37 min
    Overall bit rate            : 9 683 kb/s
    Encoded date                : UTC 2008-07-03 13:22:33
    Writing application         : mkvmerge v4.1.1 ('Bouncin' Back') built on Jul  3 2010 22:54:08
    Writing library             : libebml v1.0.0 + libmatroska v1.0.0
    
    Video
    ID                          : 1
    Format                      : AVC
    Format/Info                 : Advanced Video Codec
    Format profile              : [email protected]
    Format settings             : CABAC / 5 Ref Frames
    Format settings, CABAC      : Yes
    Format settings, Reference  : 5 frames
    Codec ID                    : V_MPEG4/ISO/AVC
    Duration                    : 1 h 37 min
    Bit rate                    : 8 177 kb/s
    Width                       : 1 920 pixels
    Height                      : 800 pixels
    Display aspect ratio        : 2.40:1
    Frame rate mode             : Constant
    Frame rate                  : 23.976 (24000/1001) FPS
    Color space                 : YUV
    Chroma subsampling          : 4:2:0
    Bit depth                   : 8 bits
    Scan type                   : Progressive
    Bits/(Pixel*Frame)          : 0.222
    Stream size                 : 5.41 GiB (82%)
    Writing library             : x264 core 100 r1659 57b2e56
    Encoding settings           : cabac=1 / ref=5 / deblock=1:0:0 / analyse=0x3:0x113 / me=umh / subme=8 / psy=1 / psy_rd=1.00:0.20 / mixed_ref=1 / me_range=16 / chroma_me=1 / trellis=1 / 8x8dct=1 / cqm=0 / deadzone=21,11 / fast_pskip=1 / chroma_qp_offset=-3 / threads=12 / sliced_threads=0 / nr=0 / decimate=1 / interlaced=0 / constrained_intra=0 / bframes=3 / b_pyramid=2 / b_adapt=1 / b_bias=0 / direct=3 / weightb=1 / open_gop=0 / weightp=0 / keyint=250 / keyint_min=25 / scenecut=40 / intra_refresh=0 / rc_lookahead=40 / rc=2pass / mbtree=1 / bitrate=8177 / ratetol=1.0 / qcomp=0.60 / qpmin=10 / qpmax=51 / qpstep=4 / cplxblur=20.0 / qblur=0.5 / ip_ratio=1.40 / aq=1:1.00
    Language                    : English
    Default                     : Yes
    Forced                      : No
    
    Audio
    ID                          : 2
    Format                      : DTS
    Format/Info                 : Digital Theater Systems
    Muxing mode                 : Header stripping
    Codec ID                    : A_DTS
    Duration                    : 1 h 37 min
    Bit rate mode               : Constant
    Bit rate                    : 1 509 kb/s
    Channel(s)                  : 6 channels
    Channel layout              : C L R Ls Rs LFE
    Sampling rate               : 48.0 kHz
    Frame rate                  : 93.750 FPS (512 SPF)
    Bit depth                   : 24 bits
    Compression mode            : Lossy
    Stream size                 : 1.02 GiB (16%)
    Language                    : English
    Default                     : Yes
    Forced                      : No
    
    Text
    ID                          : 3
    Format                      : UTF-8
    Codec ID                    : S_TEXT/UTF8
    Codec ID/Info               : UTF-8 Plain Text
    Language                    : English
    Default                     : Yes
    Forced                      : No
    
    Menu
    00:00:00.000                : en:00:00:00.000
    00:06:17.085                : en:00:06:17.085
    00:10:47.355                : en:00:10:47.355
    00:14:59.023                : en:00:14:59.023
    00:20:54.879                : en:00:20:54.879
    00:25:52.468                : en:00:25:52.468
    00:31:21.546                : en:00:31:21.546
    00:40:18.249                : en:00:40:18.249
    00:46:43.134                : en:00:46:43.134
    00:54:42.988                : en:00:54:42.988
    00:59:43.205                : en:00:59:43.205
    01:05:21.126                : en:01:05:21.126
    01:12:58.583                : en:01:12:58.583
    01:18:33.959                : en:01:18:33.959
    01:26:28.725                : en:01:26:28.725
    01:29:41.876                : en:01:29:41.876
    Download - Mirror 1:
    Download - Mirror 2:
     
  2. Loading...


Share This Page