Google Drive The.Merchant.of.Venice.2004.1080p.Bluray.x264-hV

Discussion in 'BDRip | 720p/1080p' started by DDLbase, Jul 11, 2020.

  1. DDLbase

    DDLbase Administrator Staff Member

    [​IMG]

    Rating: 7.0/10 based on 34,381 user ratings

    Genres: Drama, Romance

    In 16th century Venice, when a merchant must default on a large loan from an abused Jewish moneylender for a friend with romantic ambitions, the bitterly vengeful creditor demands a gruesome payment instead.

    [​IMG]
    Code:
    General
    Unique ID                   : 208053115265430742010962144902844107912 (0x9C85928D7A38AC98B6DFF4B62821CC88)
    Complete name               : The.Merchant.of.Venice.2004.1080p.Bluray.x264-hV.mkv
    Format                      : Matroska
    Format version              : Version 1
    File size                   : 10.9 GiB
    Duration                    : 2 h 11 min
    Overall bit rate            : 11.9 Mb/s
    Encoded date                : UTC 2008-12-13 16:22:08
    Writing application         : mkvmerge v2.4.0 ('Fumbling Towards Ecstasy') built on Oct 11 2008 20:13:15
    Writing library             : libebml v0.7.7 + libmatroska v0.8.1
    
    Video
    ID                          : 1
    Format                      : AVC
    Format/Info                 : Advanced Video Codec
    Format profile              : [email protected]
    Format settings             : CABAC / 5 Ref Frames
    Format settings, CABAC      : Yes
    Format settings, Reference  : 5 frames
    Codec ID                    : V_MPEG4/ISO/AVC
    Duration                    : 2 h 11 min
    Bit rate                    : 10.3 Mb/s
    Width                       : 1 920 pixels
    Height                      : 816 pixels
    Display aspect ratio        : 2.35:1
    Frame rate mode             : Constant
    Frame rate                  : 23.976 FPS
    Color space                 : YUV
    Chroma subsampling          : 4:2:0
    Bit depth                   : 8 bits
    Scan type                   : Progressive
    Bits/(Pixel*Frame)          : 0.275
    Stream size                 : 9.31 GiB (85%)
    Writing library             : x264 core 65 r1046 71d34b4
    Encoding settings           : cabac=1 / ref=5 / deblock=1:0:0 / analyse=0x3:0x113 / me=umh / subme=7 / psy_rd=1.0:0.0 / mixed_ref=1 / me_range=16 / chroma_me=1 / trellis=1 / 8x8dct=1 / cqm=0 / deadzone=21,11 / chroma_qp_offset=-2 / threads=3 / nr=0 / decimate=1 / mbaff=0 / bframes=3 / b_pyramid=1 / b_adapt=1 / b_bias=0 / direct=3 / wpredb=1 / keyint=24 / keyint_min=1 / scenecut=40(pre) / rc=2pass / bitrate=10346 / ratetol=1.0 / qcomp=0.60 / qpmin=10 / qpmax=51 / qpstep=4 / cplxblur=20.0 / qblur=0.5 / vbv_maxrate=17500 / vbv_bufsize=14745 / ip_ratio=1.40 / pb_ratio=1.30 / aq=1:1.00
    Language                    : English
    Default                     : Yes
    Forced                      : No
    
    Audio
    ID                          : 2
    Format                      : DTS
    Format/Info                 : Digital Theater Systems
    Codec ID                    : A_DTS
    Duration                    : 2 h 11 min
    Bit rate mode               : Constant
    Bit rate                    : 1 509 kb/s
    Channel(s)                  : 6 channels
    Channel layout              : C L R Ls Rs LFE
    Sampling rate               : 48.0 kHz
    Frame rate                  : 93.750 FPS (512 SPF)
    Bit depth                   : 24 bits
    Compression mode            : Lossy
    Stream size                 : 1.39 GiB (13%)
    Language                    : English
    Default                     : Yes
    Forced                      : No
    
    Menu
    00:00:00.000                : en:00:00:00.000
    00:06:35.353                : en:00:06:35.353
    00:12:26.955                : en:00:12:26.955
    00:18:52.673                : en:00:18:52.673
    00:25:48.422                : en:00:25:48.422
    00:30:40.213                : en:00:30:40.213
    00:39:35.748                : en:00:39:35.748
    00:43:37.156                : en:00:43:37.156
    00:50:27.358                : en:00:50:27.358
    00:58:57.242                : en:00:58:57.242
    01:06:30.111                : en:01:06:30.111
    01:12:57.248                : en:01:12:57.248
    01:20:24.820                : en:01:20:24.820
    01:23:46.063                : en:01:23:46.063
    01:31:42.706                : en:01:31:42.706
    01:38:51.008                : en:01:38:51.008
    01:43:59.316                : en:01:43:59.316
    01:49:59.343                : en:01:49:59.343
    01:55:17.702                : en:01:55:17.702
    02:05:33.025                : en:02:05:33.025
    Download - Mirror 1:
    Download - Mirror 2:
     

Share This Page