Google Drive The.Net.2.0.2006.1080p.AMZN.WEB-DL.DD+5.1.H.264-ABM

Discussion in 'Web-DL / Webrip | 1080p' started by DDLbase, Nov 16, 2019.

  1. DDLbase

    DDLbase Administrator Staff Member

    [​IMG]
    [​IMG]
    Code:
    General
    Unique ID                   : 152424072604403256899290809072409637058 (0x72ABCEFE4661734DA65BD5CCC99BF0C2)
    Complete name               : The.Net.2.0.2006.1080p.AMZN.WEB-DL.DD+5.1.H.264-ABM.mkv
    Format                      : Matroska
    Format version              : Version 4 / Version 2
    File size                   : 6.60 GiB
    Duration                    : 1 h 32 min
    Overall bit rate            : 10.2 Mb/s
    Encoded date                : UTC 2017-10-23 14:42:11
    Writing application         : mkvmerge v16.0.0 ('Protest') 64-bit
    Writing library             : libebml v1.3.5 + libmatroska v1.4.8
    
    Video
    ID                          : 1
    Format                      : AVC
    Format/Info                 : Advanced Video Codec
    Format profile              : [email protected]
    Format settings, CABAC      : Yes
    Format settings, ReFrames   : 4 frames
    Codec ID                    : V_MPEG4/ISO/AVC
    Duration                    : 1 h 32 min
    Bit rate mode               : Constant
    Bit rate                    : 10 000 kb/s
    Width                       : 1 920 pixels
    Height                      : 1 080 pixels
    Display aspect ratio        : 16:9
    Frame rate mode             : Constant
    Frame rate                  : 23.976 (24000/1001) FPS
    Color space                 : YUV
    Chroma subsampling          : 4:2:0
    Bit depth                   : 8 bits
    Scan type                   : Progressive
    Bits/(Pixel*Frame)          : 0.201
    Stream size                 : 6.43 GiB (97%)
    Language                    : English
    Default                     : Yes
    Forced                      : No
    Color range                 : Limited
    Color primaries             : BT.709
    Transfer characteristics    : BT.709
    Matrix coefficients         : BT.709
    
    Audio
    ID                          : 2
    Format                      : E-AC-3
    Format/Info                 : Enhanced Audio Coding 3
    Format settings, Endianness : Big
    Codec ID                    : A_EAC3
    Duration                    : 1 h 32 min
    Bit rate mode               : Constant
    Bit rate                    : 256 kb/s
    Channel(s)                  : 6 channels
    Channel positions           : Front: L C R, Side: L R, LFE
    Sampling rate               : 48.0 kHz
    Frame rate                  : 187.500 FPS (256 spf)
    Compression mode            : Lossy
    Stream size                 : 169 MiB (3%)
    Language                    : English
    Service kind                : Complete Main
    Default                     : Yes
    Forced                      : No
    
    Text
    ID                          : 3
    Format                      : UTF-8
    Codec ID                    : S_TEXT/UTF8
    Codec ID/Info               : UTF-8 Plain Text
    Duration                    : 1 h 27 min
    Bit rate                    : 53 b/s
    Count of elements           : 1056
    Stream size                 : 34.4 KiB (0%)
    Language                    : English
    Default                     : No
    Forced                      : No
    Download:
     
  2. Loading...


Share This Page