Google Drive The.New.Mutants.2020.1080p.Bluray.DTS-HD.MA.7.1.X264-EVO

Discussion in 'BDRip | 720p/1080p' started by DDLbase, Nov 7, 2020.

  1. DDLbase

    DDLbase Administrator Staff Member

    [​IMG]

    Rating: 5.5/10 based on 14,214 user ratings

    Genres: Action, Horror, Sci-Fi

    Five young mutants, just discovering their abilities while held in a secret facility against their will, fight to escape their past sins and save themselves.

    [​IMG]
    Code:
    General
    Unique ID                   : 152228595629517732126775420003350884895 (0x7286293BFB2FA11442D915FE5D2E321F)
    Complete name               : The New Mutants.2020.1080p.Bluray.DTS-HD.MA.7.1.X264-EVO.mkv
    Format                      : Matroska
    Format version              : Version 4
    File size                   : 11.6 GiB
    Duration                    : 1 h 34 min
    Overall bit rate mode       : Variable
    Overall bit rate            : 17.7 Mb/s
    Movie name                  : EVO
    Encoded date                : UTC 2020-11-06 02:22:36
    Writing application         : mkvmerge v49.0.0 ('Sick Of Losing Soulmates') 64-bit
    Writing library             : libebml v1.4.0 + libmatroska v1.6.1
    
    Video
    ID                          : 2
    Format                      : AVC
    Format/Info                 : Advanced Video Codec
    Format profile              : [email protected]
    Format settings             : CABAC / 4 Ref Frames
    Format settings, CABAC      : Yes
    Format settings, Reference  : 4 frames
    Codec ID                    : V_MPEG4/ISO/AVC
    Duration                    : 1 h 34 min
    Bit rate                    : 13.0 Mb/s
    Width                       : 1 920 pixels
    Height                      : 1 040 pixels
    Display aspect ratio        : 1.85:1
    Frame rate mode             : Constant
    Frame rate                  : 23.976 (24000/1001) FPS
    Color space                 : YUV
    Chroma subsampling          : 4:2:0
    Bit depth                   : 8 bits
    Scan type                   : Progressive
    Bits/(Pixel*Frame)          : 0.272
    Stream size                 : 8.22 GiB (71%)
    Writing library             : x264 core 142 r2479 dd79a61
    Encoding settings           : cabac=1 / ref=1 / deblock=1:0:0 / analyse=0x3:0x3 / me=dia / subme=1 / psy=1 / psy_rd=1.00:0.00 / mixed_ref=0 / me_range=16 / chroma_me=1 / trellis=0 / 8x8dct=1 / cqm=0 / deadzone=21,11 / fast_pskip=1 / chroma_qp_offset=0 / threads=24 / lookahead_threads=4 / sliced_threads=0 / nr=0 / decimate=1 / interlaced=0 / bluray_compat=0 / constrained_intra=0 / bframes=3 / b_pyramid=2 / b_adapt=1 / b_bias=0 / direct=1 / weightb=1 / open_gop=0 / weightp=1 / keyint=240 / keyint_min=24 / scenecut=40 / intra_refresh=0 / rc_lookahead=0 / rc=abr / mbtree=0 / bitrate=13000 / ratetol=1.0 / qcomp=0.60 / qpmin=0 / qpmax=69 / qpstep=4 / vbv_maxrate=62500 / vbv_bufsize=78125 / nal_hrd=none / filler=0 / ip_ratio=1.40 / pb_ratio=1.30 / aq=1:1.00
    Default                     : Yes
    Forced                      : No
    Color range                 : Limited
    Color primaries             : BT.709
    Transfer characteristics    : BT.709
    Matrix coefficients         : BT.709
    
    Audio #1
    ID                          : 1
    Format                      : DTS XLL
    Format/Info                 : Digital Theater Systems
    Commercial name             : DTS-HD Master Audio
    Codec ID                    : A_DTS
    Duration                    : 1 h 34 min
    Bit rate mode               : Variable
    Bit rate                    : 4 543 kb/s
    Channel(s)                  : 8 channels
    Channel layout              : C L R LFE Lb Rb Lss Rss
    Sampling rate               : 48.0 kHz
    Frame rate                  : 93.750 FPS (512 SPF)
    Bit depth                   : 24 bits
    Compression mode            : Lossless
    Delay relative to video     : -83 ms
    Stream size                 : 2.98 GiB (26%)
    Language                    : English
    Default                     : No
    Forced                      : No
    
    Audio #2
    ID                          : 3
    Format                      : AC-3
    Format/Info                 : Audio Coding 3
    Commercial name             : Dolby Digital
    Codec ID                    : A_AC3
    Duration                    : 1 h 34 min
    Bit rate mode               : Constant
    Bit rate                    : 640 kb/s
    Channel(s)                  : 6 channels
    Channel layout              : L R C LFE Ls Rs
    Sampling rate               : 48.0 kHz
    Frame rate                  : 31.250 FPS (1536 SPF)
    Compression mode            : Lossy
    Delay relative to video     : -5 ms
    Stream size                 : 431 MiB (4%)
    Title                       : Surround
    Language                    : English
    Service kind                : Complete Main
    Default                     : Yes
    Forced                      : No
    
    Menu
    00:00:00.000                : :Chapter 1
    00:02:40.076                : :Chapter 2
    00:08:07.862                : :Chapter 3
    00:10:53.986                : :Chapter 4
    00:14:33.164                : :Chapter 5
    00:17:24.043                : :Chapter 6
    00:19:53.192                : :Chapter 7
    00:23:42.004                : :Chapter 8
    00:27:54.714                : :Chapter 9
    00:30:30.203                : :Chapter 10
    00:33:26.713                : :Chapter 11
    00:39:36.916                : :Chapter 12
    00:43:13.090                : :Chapter 13
    00:47:53.412                : :Chapter 14
    00:50:35.282                : :Chapter 15
    00:52:12.379                : :Chapter 16
    00:55:28.950                : :Chapter 17
    00:57:13.179                : :Chapter 18
    01:00:17.238                : :Chapter 19
    01:02:37.879                : :Chapter 20
    01:06:36.492                : :Chapter 21
    01:11:12.226                : :Chapter 22
    01:13:44.586                : :Chapter 23
    01:15:08.003                : :Chapter 24
    01:18:57.232                : :Chapter 25
    01:21:52.491                : :Chapter 26
    01:24:32.400                : :Chapter 27
    01:26:46.326                : :Chapter 28
    Download - Mirror 1:
    Download - Mirror 2:
     
  2. Loading...


Share This Page