Google Drive The.Northman.2022.2160p.WEB-DL.DDP5.1.Atmos.HDR.H.265-EVO

Discussion in 'Web-DL / Webrip | 4K' started by DDLbase, May 14, 2022.

  1. DDLbase

    DDLbase Administrator Staff Member

    [​IMG]

    Rating: 7.7/10 based on 57,567 user ratings

    Genres: Action, Adventure, Drama

    From visionary director Robert Eggers comes The Northman, an action-filled epic that follows a young Viking prince on his quest to avenge his father's murder.

    [​IMG]
    Code:
    General
    Unique ID                   : 212771972524451076008188578906519050611 (0xA012642D9EEB6A4E728904F604D31973)
    Complete name               : The.Northman.2022.2160p.WEB-DL.DDP5.1.Atmos.HDR.H.265-EVO.mkv
    Format                      : Matroska
    Format version              : Version 4
    File size                   : 14.5 GiB
    Duration                    : 2 h 17 min
    Overall bit rate            : 15.1 Mb/s
    Encoded date                : UTC 2022-05-12 04:04:58
    Writing application         : mkvmerge v65.0.0 ('Too Much') 64-bit
    Writing library             : libebml v1.4.2 + libmatroska v1.6.4
    
    Video
    ID                          : 1
    Format                      : HEVC
    Format/Info                 : High Efficiency Video Coding
    Format profile              : Main [email protected]@High
    HDR format                  : SMPTE ST 2086, HDR10 compatible
    Codec ID                    : V_MPEGH/ISO/HEVC
    Duration                    : 2 h 16 min
    Bit rate                    : 14.3 Mb/s
    Width                       : 3 836 pixels
    Height                      : 1 912 pixels
    Display aspect ratio        : 2.006
    Frame rate mode             : Constant
    Frame rate                  : 23.976 FPS
    Color space                 : YUV
    Chroma subsampling          : 4:2:0 (Type 2)
    Bit depth                   : 10 bits
    Bits/(Pixel*Frame)          : 0.082
    Stream size                 : 13.7 GiB (95%)
    Default                     : Yes
    Forced                      : No
    Color range                 : Limited
    Color primaries             : BT.2020
    Transfer characteristics    : PQ
    Matrix coefficients         : BT.2020 non-constant
    Mastering display color pri : BT.2020
    Mastering display luminance : min: 0.0050 cd/m2, max: 1000 cd/m2
    Maximum Content Light Level : 6958 cd/m2
    Maximum Frame-Average Light : 586 cd/m2
    
    Audio
    ID                          : 2
    Format                      : E-AC-3 JOC
    Format/Info                 : Enhanced AC-3 with Joint Object Coding
    Commercial name             : Dolby Digital Plus with Dolby Atmos
    Codec ID                    : A_EAC3
    Duration                    : 2 h 17 min
    Bit rate mode               : Constant
    Bit rate                    : 768 kb/s
    Channel(s)                  : 6 channels
    Channel layout              : L R C LFE Ls Rs
    Sampling rate               : 48.0 kHz
    Frame rate                  : 31.250 FPS (1536 SPF)
    Compression mode            : Lossy
    Stream size                 : 753 MiB (5%)
    Language                    : English
    Service kind                : Complete Main
    Default                     : Yes
    Forced                      : No
    Complexity index            : 16
    Number of dynamic objects   : 15
    Bed channel count           : 1 channel
    Bed channel configuration   : LFE
    
    Text #1
    ID                          : 3
    Format                      : UTF-8
    Codec ID                    : S_TEXT/UTF8
    Codec ID/Info               : UTF-8 Plain Text
    Duration                    : 2 h 8 min
    Bit rate                    : 29 b/s
    Count of elements           : 860
    Stream size                 : 28.0 KiB (0%)
    Title                       : Latin American
    Language                    : Spanish
    Default                     : No
    Forced                      : No
    
    Text #2
    ID                          : 4
    Format                      : UTF-8
    Codec ID                    : S_TEXT/UTF8
    Codec ID/Info               : UTF-8 Plain Text
    Duration                    : 2 h 10 min
    Bit rate                    : 29 b/s
    Count of elements           : 997
    Stream size                 : 28.1 KiB (0%)
    Title                       : Canadian
    Language                    : French
    Default                     : No
    Forced                      : No
    Download - Mirror 1:
    Download - Mirror 2:
     
  2. Loading...


Share This Page