Google Drive The.Outfit.2022.2022.2160p.WEB-DL.DD5.1.HDR.H.265-EVO

Discussion in 'Web-DL / Webrip | 4K' started by DDLbase, Apr 7, 2022.

  1. DDLbase

    DDLbase Administrator Staff Member

    [​IMG]

    Rating: 7.5/10 based on 1,947 user ratings

    Genres: Crime, Drama

    An expert tailor must outwit a dangerous group of mobsters in order to survive a fateful night.

    [​IMG]
    Code:
    General
    Unique ID                   : 284309696513628362535718799993506460290 (0xD5E40E48E0AC817389151AB4A1BD7282)
    Complete name               : The.Outfit.2022.2022.2160p.WEB-DL.DD5.1.HDR.H.265-EVO.mkv
    Format                      : Matroska
    Format version              : Version 4
    File size                   : 11.0 GiB
    Duration                    : 1 h 45 min
    Overall bit rate            : 14.9 Mb/s
    Encoded date                : UTC 2022-04-07 04:02:15
    Writing application         : mkvmerge v63.0.0 ('Everything') 64-bit
    Writing library             : libebml v1.4.2 + libmatroska v1.6.4
    
    Video
    ID                          : 1
    Format                      : HEVC
    Format/Info                 : High Efficiency Video Coding
    Format profile              : Main [email protected]@High
    HDR format                  : SMPTE ST 2086, HDR10 compatible
    Codec ID                    : V_MPEGH/ISO/HEVC
    Duration                    : 1 h 45 min
    Bit rate                    : 14.6 Mb/s
    Width                       : 3 840 pixels
    Height                      : 1 920 pixels
    Display aspect ratio        : 2.000
    Frame rate mode             : Constant
    Frame rate                  : 23.976 FPS
    Color space                 : YUV
    Chroma subsampling          : 4:2:0 (Type 2)
    Bit depth                   : 10 bits
    Bits/(Pixel*Frame)          : 0.082
    Stream size                 : 10.7 GiB (97%)
    Default                     : Yes
    Forced                      : No
    Color range                 : Limited
    Color primaries             : BT.2020
    Transfer characteristics    : PQ
    Matrix coefficients         : BT.2020 non-constant
    Mastering display color pri : Display P3
    Mastering display luminance : min: 0.0050 cd/m2, max: 1000 cd/m2
    Maximum Content Light Level : 1007 cd/m2
    Maximum Frame-Average Light : 536 cd/m2
    
    Audio
    ID                          : 2
    Format                      : AC-3
    Format/Info                 : Audio Coding 3
    Commercial name             : Dolby Digital
    Codec ID                    : A_AC3
    Duration                    : 1 h 45 min
    Bit rate mode               : Constant
    Bit rate                    : 384 kb/s
    Channel(s)                  : 6 channels
    Channel layout              : L R C LFE Ls Rs
    Sampling rate               : 48.0 kHz
    Frame rate                  : 31.250 FPS (1536 SPF)
    Compression mode            : Lossy
    Stream size                 : 289 MiB (3%)
    Language                    : English
    Service kind                : Complete Main
    Default                     : Yes
    Forced                      : No
    Download - Mirror 1:
    Download - Mirror 2:
     
  2. Loading...


Share This Page