Google Drive The.Prestige.2006.2160p.UHD.BluRay.x265-IAMABLE

Discussion in 'BDRip | 4K' started by DDLbase, Mar 21, 2021.

  1. DDLbase

    DDLbase Administrator Staff Member

    [​IMG]

    Rating: 8.5/10 based on 1,201,560 user ratings

    Genres: Drama, Mystery, Sci-Fi, Thriller

    After a tragic accident, two stage magicians engage in a battle to create the ultimate illusion while sacrificing everything they have to outwit each other.

    [​IMG]
    Code:
    General
    Unique ID                   : 73186441394763561866094466486585744035 (0x370F32268988C8C2672BF67628075AA3)
    Complete name               : The.Prestige.2006.2160p.UHD.BluRay.x265-IAMABLE.mkv
    Format                      : Matroska
    Format version              : Version 2
    File size                   : 24.4 GiB
    Duration                    : 2 h 10 min
    Overall bit rate mode       : Variable
    Overall bit rate            : 26.8 Mb/s
    Encoded date                : UTC 2018-01-19 22:49:22
    Writing application         : mkvmerge v19.0.0 ('Brave Captain') 64-bit
    Writing library             : libebml v1.3.5 + libmatroska v1.4.8
    
    Video
    ID                          : 1
    Format                      : HEVC
    Format/Info                 : High Efficiency Video Coding
    Format profile              : Main [email protected]@High
    HDR format                  : SMPTE ST 2086, HDR10 compatible
    Codec ID                    : V_MPEGH/ISO/HEVC
    Duration                    : 2 h 10 min
    Bit rate                    : 22.8 Mb/s
    Width                       : 3 840 pixels
    Height                      : 1 600 pixels
    Display aspect ratio        : 2.40:1
    Frame rate mode             : Constant
    Frame rate                  : 23.976 (24000/1001) FPS
    Color space                 : YUV
    Chroma subsampling          : 4:2:0 (Type 2)
    Bit depth                   : 10 bits
    Bits/(Pixel*Frame)          : 0.155
    Stream size                 : 20.7 GiB (85%)
    Writing library             : x265 2.6+4-f7498acb3874:[Windows][GCC 7.2.0][64 bit] 10bit
    Encoding settings           : cpuid=1173503 / frame-threads=4 / numa-pools=16 / wpp / no-pmode / no-pme / no-psnr / no-ssim / log-level=2 / input-csp=1 / input-res=3840x1600 / interlace=0 / total-frames=187467 / level-idc=51 / high-tier=1 / uhd-bd=0 / ref=4 / no-allow-non-conformance / repeat-headers / annexb / aud / hrd / info / hash=0 / no-temporal-layers / no-open-gop / min-keyint=24 / keyint=240 / bframes=4 / b-adapt=2 / b-pyramid / bframe-bias=0 / rc-lookahead=25 / lookahead-slices=4 / scenecut=40 / no-intra-refresh / ctu=64 / min-cu-size=8 / rect / no-amp / max-tu-size=32 / tu-inter-depth=1 / tu-intra-depth=1 / limit-tu=0 / rdoq-level=2 / dynamic-rd=0.00 / no-ssim-rd / signhide / no-tskip / nr-intra=0 / nr-inter=0 / no-constrained-intra / no-strong-intra-smoothing / max-merge=3 / limit-refs=3 / limit-modes / me=3 / subme=3 / merange=57 / temporal-mvp / weightp / no-weightb / no-analyze-src-pics / deblock=-3:-3 / no-sao / no-sao-non-deblock / rd=4 / no-early-skip / rskip / no-fast-intra / no-tskip-fast / no-cu-lossless / no-b-intra / no-splitrd-skip / rdpenalty=0 / psy-rd=2.00 / psy-rdoq=1.00 / no-rd-refine / analysis-reuse-mode=0 / no-lossless / cbqpoffs=0 / crqpoffs=0 / rc=crf / crf=17.0 / qcomp=0.60 / qpstep=4 / stats-write=0 / stats-read=0 / vbv-maxrate=160000 / vbv-bufsize=160000 / vbv-init=0.9 / crf-max=0.0 / crf-min=0.0 / ipratio=1.40 / pbratio=1.30 / aq-mode=1 / aq-strength=1.00 / cutree / zone-count=0 / no-strict-cbr / qg-size=32 / no-rc-grain / qpmax=69 / qpmin=0 / no-const-vbv / sar=1 / overscan=0 / videoformat=5 / range=0 / colorprim=9 / transfer=16 / colormatrix=9 / chromaloc=1 / chromaloc-top=2 / chromaloc-bottom=2 / display-window=0 / master-display=G(13250,34500)B(7500,3000)R(34000,16000)WP(15635,16450)L(40000000,50) / max-cll=1121,284 / min-luma=0 / max-luma=1023 / log2-max-poc-lsb=8 / vui-timing-info / vui-hrd-info / slices=1 / opt-qp-pps / opt-ref-list-length-pps / no-multi-pass-opt-rps / scenecut-bias=0.05 / no-opt-cu-delta-qp / no-aq-motion / hdr / hdr-opt / no-dhdr10-opt / analysis-reuse-level=5 / scale-factor=0 / refine-intra=0 / refine-inter=0 / refine-mv=0 / no-limit-sao / ctu-info=0 / no-lowpass-dct / refine-mv-type=0 / copy-pic=1
    Default                     : Yes
    Forced                      : No
    Color range                 : Limited
    Color primaries             : BT.2020
    Transfer characteristics    : PQ
    Matrix coefficients         : BT.2020 non-constant
    Mastering display color pri : Display P3
    Mastering display luminance : min: 0.0050 cd/m2, max: 4000 cd/m2
    Maximum Content Light Level : 1121 cd/m2
    Maximum Frame-Average Light : 284 cd/m2
    
    Audio
    ID                          : 2
    Format                      : DTS XLL
    Format/Info                 : Digital Theater Systems
    Commercial name             : DTS-HD Master Audio
    Codec ID                    : A_DTS
    Duration                    : 2 h 10 min
    Bit rate mode               : Variable
    Bit rate                    : 3 644 kb/s
    Channel(s)                  : 6 channels
    Channel layout              : C L R Ls Rs LFE
    Sampling rate               : 48.0 kHz
    Frame rate                  : 93.750 FPS (512 SPF)
    Bit depth                   : 24 bits
    Compression mode            : Lossless
    Stream size                 : 3.32 GiB (14%)
    Language                    : English
    Default                     : Yes
    Forced                      : No
    
    Text #1
    ID                          : 3
    Format                      : UTF-8
    Codec ID                    : S_TEXT/UTF8
    Codec ID/Info               : UTF-8 Plain Text
    Duration                    : 2 h 4 min
    Bit rate                    : 65 b/s
    Count of elements           : 1554
    Stream size                 : 59.4 KiB (0%)
    Title                       : Stripped SRT
    Language                    : English
    Default                     : No
    Forced                      : No
    
    Text #2
    ID                          : 4
    Format                      : UTF-8
    Codec ID                    : S_TEXT/UTF8
    Codec ID/Info               : UTF-8 Plain Text
    Duration                    : 2 h 9 min
    Bit rate                    : 65 b/s
    Count of elements           : 1658
    Stream size                 : 61.7 KiB (0%)
    Title                       : SDH SRT
    Language                    : English
    Default                     : No
    Forced                      : No
    
    Text #3
    ID                          : 5
    Format                      : PGS
    Muxing mode                 : zlib
    Codec ID                    : S_HDMV/PGS
    Codec ID/Info               : Picture based subtitle format used on BDs/HD-DVDs
    Duration                    : 2 h 9 min
    Bit rate                    : 34.6 kb/s
    Count of elements           : 3316
    Stream size                 : 32.0 MiB (0%)
    Title                       : SDH
    Language                    : English
    Default                     : No
    Forced                      : No
    
    Text #4
    ID                          : 6
    Format                      : PGS
    Muxing mode                 : zlib
    Codec ID                    : S_HDMV/PGS
    Codec ID/Info               : Picture based subtitle format used on BDs/HD-DVDs
    Duration                    : 2 h 9 min
    Bit rate                    : 25.7 kb/s
    Count of elements           : 3458
    Stream size                 : 23.8 MiB (0%)
    Language                    : French
    Default                     : No
    Forced                      : No
    
    Text #5
    ID                          : 7
    Format                      : PGS
    Muxing mode                 : zlib
    Codec ID                    : S_HDMV/PGS
    Codec ID/Info               : Picture based subtitle format used on BDs/HD-DVDs
    Duration                    : 2 h 9 min
    Bit rate                    : 31.0 kb/s
    Count of elements           : 3044
    Stream size                 : 28.7 MiB (0%)
    Language                    : Spanish
    Default                     : No
    Forced                      : No
    
    Text #6
    ID                          : 8
    Format                      : PGS
    Muxing mode                 : zlib
    Codec ID                    : S_HDMV/PGS
    Codec ID/Info               : Picture based subtitle format used on BDs/HD-DVDs
    Duration                    : 2 h 9 min
    Bit rate                    : 32.0 kb/s
    Count of elements           : 3082
    Stream size                 : 29.6 MiB (0%)
    Language                    : Spanish
    Default                     : No
    Forced                      : No
    
    Text #7
    ID                          : 9
    Format                      : PGS
    Muxing mode                 : zlib
    Codec ID                    : S_HDMV/PGS
    Codec ID/Info               : Picture based subtitle format used on BDs/HD-DVDs
    Duration                    : 2 h 9 min
    Bit rate                    : 30.5 kb/s
    Count of elements           : 3000
    Stream size                 : 28.3 MiB (0%)
    Language                    : Portuguese
    Default                     : No
    Forced                      : No
    
    Text #8
    ID                          : 10
    Format                      : PGS
    Muxing mode                 : zlib
    Codec ID                    : S_HDMV/PGS
    Codec ID/Info               : Picture based subtitle format used on BDs/HD-DVDs
    Duration                    : 2 h 9 min
    Bit rate                    : 29.8 kb/s
    Count of elements           : 2902
    Stream size                 : 27.6 MiB (0%)
    Language                    : Portuguese
    Default                     : No
    Forced                      : No
    
    Text #9
    ID                          : 11
    Format                      : PGS
    Muxing mode                 : zlib
    Codec ID                    : S_HDMV/PGS
    Codec ID/Info               : Picture based subtitle format used on BDs/HD-DVDs
    Duration                    : 2 h 9 min
    Bit rate                    : 35.2 kb/s
    Count of elements           : 3322
    Stream size                 : 32.6 MiB (0%)
    Language                    : Italian
    Default                     : No
    Forced                      : No
    
    Text #10
    ID                          : 12
    Format                      : PGS
    Muxing mode                 : zlib
    Codec ID                    : S_HDMV/PGS
    Codec ID/Info               : Picture based subtitle format used on BDs/HD-DVDs
    Duration                    : 2 h 9 min
    Bit rate                    : 41.0 kb/s
    Count of elements           : 3414
    Stream size                 : 38.0 MiB (0%)
    Language                    : German
    Default                     : No
    Forced                      : No
    
    Text #11
    ID                          : 13
    Format                      : PGS
    Muxing mode                 : zlib
    Codec ID                    : S_HDMV/PGS
    Codec ID/Info               : Picture based subtitle format used on BDs/HD-DVDs
    Duration                    : 2 h 9 min
    Bit rate                    : 26.8 kb/s
    Count of elements           : 2424
    Stream size                 : 24.8 MiB (0%)
    Language                    : Dutch
    Default                     : No
    Forced                      : No
    
    Text #12
    ID                          : 14
    Format                      : PGS
    Muxing mode                 : zlib
    Codec ID                    : S_HDMV/PGS
    Codec ID/Info               : Picture based subtitle format used on BDs/HD-DVDs
    Duration                    : 2 h 9 min
    Bit rate                    : 25.7 kb/s
    Count of elements           : 2240
    Stream size                 : 23.8 MiB (0%)
    Language                    : Swedish
    Default                     : No
    Forced                      : No
    
    Text #13
    ID                          : 15
    Format                      : PGS
    Muxing mode                 : zlib
    Codec ID                    : S_HDMV/PGS
    Codec ID/Info               : Picture based subtitle format used on BDs/HD-DVDs
    Duration                    : 2 h 9 min
    Bit rate                    : 27.2 kb/s
    Count of elements           : 2276
    Stream size                 : 25.1 MiB (0%)
    Language                    : Norwegian
    Default                     : No
    Forced                      : No
    
    Text #14
    ID                          : 16
    Format                      : PGS
    Muxing mode                 : zlib
    Codec ID                    : S_HDMV/PGS
    Codec ID/Info               : Picture based subtitle format used on BDs/HD-DVDs
    Duration                    : 2 h 9 min
    Bit rate                    : 27.0 kb/s
    Count of elements           : 2192
    Stream size                 : 24.9 MiB (0%)
    Language                    : Danish
    Default                     : No
    Forced                      : No
    
    Text #15
    ID                          : 17
    Format                      : PGS
    Muxing mode                 : zlib
    Codec ID                    : S_HDMV/PGS
    Codec ID/Info               : Picture based subtitle format used on BDs/HD-DVDs
    Duration                    : 2 h 9 min
    Bit rate                    : 24.7 kb/s
    Count of elements           : 2056
    Stream size                 : 22.8 MiB (0%)
    Language                    : Finnish
    Default                     : No
    Forced                      : No
    
    Text #16
    ID                          : 18
    Format                      : PGS
    Muxing mode                 : zlib
    Codec ID                    : S_HDMV/PGS
    Codec ID/Info               : Picture based subtitle format used on BDs/HD-DVDs
    Duration                    : 2 h 9 min
    Bit rate                    : 32.9 kb/s
    Count of elements           : 3150
    Stream size                 : 30.5 MiB (0%)
    Language                    : Russian
    Default                     : No
    Forced                      : No
    
    Text #17
    ID                          : 19
    Format                      : PGS
    Muxing mode                 : zlib
    Codec ID                    : S_HDMV/PGS
    Codec ID/Info               : Picture based subtitle format used on BDs/HD-DVDs
    Duration                    : 2 h 9 min
    Bit rate                    : 27.6 kb/s
    Count of elements           : 3062
    Stream size                 : 25.6 MiB (0%)
    Language                    : Czech
    Default                     : No
    Forced                      : No
    
    Text #18
    ID                          : 20
    Format                      : PGS
    Muxing mode                 : zlib
    Codec ID                    : S_HDMV/PGS
    Codec ID/Info               : Picture based subtitle format used on BDs/HD-DVDs
    Duration                    : 2 h 9 min
    Bit rate                    : 29.7 kb/s
    Count of elements           : 3010
    Stream size                 : 27.5 MiB (0%)
    Language                    : Polish
    Default                     : No
    Forced                      : No
    
    Text #19
    ID                          : 21
    Format                      : PGS
    Muxing mode                 : zlib
    Codec ID                    : S_HDMV/PGS
    Codec ID/Info               : Picture based subtitle format used on BDs/HD-DVDs
    Duration                    : 2 h 9 min
    Bit rate                    : 28.2 kb/s
    Count of elements           : 3072
    Stream size                 : 26.2 MiB (0%)
    Language                    : Hungarian
    Default                     : No
    Forced                      : No
    
    Text #20
    ID                          : 22
    Format                      : PGS
    Muxing mode                 : zlib
    Codec ID                    : S_HDMV/PGS
    Codec ID/Info               : Picture based subtitle format used on BDs/HD-DVDs
    Duration                    : 2 h 9 min
    Bit rate                    : 27.5 kb/s
    Count of elements           : 3004
    Stream size                 : 25.5 MiB (0%)
    Language                    : Romanian
    Default                     : No
    Forced                      : No
    
    Text #21
    ID                          : 23
    Format                      : PGS
    Muxing mode                 : zlib
    Codec ID                    : S_HDMV/PGS
    Codec ID/Info               : Picture based subtitle format used on BDs/HD-DVDs
    Duration                    : 2 h 9 min
    Bit rate                    : 23.6 kb/s
    Count of elements           : 3086
    Stream size                 : 21.8 MiB (0%)
    Language                    : Croatian
    Default                     : No
    Forced                      : No
    
    Text #22
    ID                          : 24
    Format                      : PGS
    Muxing mode                 : zlib
    Codec ID                    : S_HDMV/PGS
    Codec ID/Info               : Picture based subtitle format used on BDs/HD-DVDs
    Duration                    : 2 h 9 min
    Bit rate                    : 29.3 kb/s
    Count of elements           : 3098
    Stream size                 : 27.1 MiB (0%)
    Language                    : Greek
    Default                     : No
    Forced                      : No
    
    Text #23
    ID                          : 25
    Format                      : PGS
    Muxing mode                 : zlib
    Codec ID                    : S_HDMV/PGS
    Codec ID/Info               : Picture based subtitle format used on BDs/HD-DVDs
    Duration                    : 2 h 9 min
    Bit rate                    : 30.8 kb/s
    Count of elements           : 3010
    Stream size                 : 28.5 MiB (0%)
    Language                    : Turkish
    Default                     : No
    Forced                      : No
    
    Text #24
    ID                          : 26
    Format                      : PGS
    Muxing mode                 : zlib
    Codec ID                    : S_HDMV/PGS
    Codec ID/Info               : Picture based subtitle format used on BDs/HD-DVDs
    Duration                    : 2 h 9 min
    Bit rate                    : 16.8 kb/s
    Count of elements           : 3116
    Stream size                 : 15.6 MiB (0%)
    Language                    : Arabic
    Default                     : No
    Forced                      : No
    
    Text #25
    ID                          : 27
    Format                      : PGS
    Muxing mode                 : zlib
    Codec ID                    : S_HDMV/PGS
    Codec ID/Info               : Picture based subtitle format used on BDs/HD-DVDs
    Duration                    : 2 h 9 min
    Bit rate                    : 24.2 kb/s
    Count of elements           : 3108
    Stream size                 : 22.4 MiB (0%)
    Language                    : Hebrew
    Default                     : No
    Forced                      : No
    
    Text #26
    ID                          : 28
    Format                      : PGS
    Muxing mode                 : zlib
    Codec ID                    : S_HDMV/PGS
    Codec ID/Info               : Picture based subtitle format used on BDs/HD-DVDs
    Duration                    : 2 h 9 min
    Bit rate                    : 26.0 kb/s
    Count of elements           : 3094
    Stream size                 : 24.1 MiB (0%)
    Language                    : Chinese
    Default                     : No
    Forced                      : No
    
    Text #27
    ID                          : 29
    Format                      : PGS
    Muxing mode                 : zlib
    Codec ID                    : S_HDMV/PGS
    Codec ID/Info               : Picture based subtitle format used on BDs/HD-DVDs
    Duration                    : 2 h 9 min
    Bit rate                    : 31.7 kb/s
    Count of elements           : 3064
    Stream size                 : 29.3 MiB (0%)
    Language                    : Chinese
    Default                     : No
    Forced                      : No
    
    Text #28
    ID                          : 30
    Format                      : PGS
    Muxing mode                 : zlib
    Codec ID                    : S_HDMV/PGS
    Codec ID/Info               : Picture based subtitle format used on BDs/HD-DVDs
    Duration                    : 2 h 9 min
    Bit rate                    : 29.8 kb/s
    Count of elements           : 3070
    Stream size                 : 27.6 MiB (0%)
    Language                    : Chinese
    Default                     : No
    Forced                      : No
    
    Text #29
    ID                          : 31
    Format                      : PGS
    Muxing mode                 : zlib
    Codec ID                    : S_HDMV/PGS
    Codec ID/Info               : Picture based subtitle format used on BDs/HD-DVDs
    Duration                    : 2 h 9 min
    Bit rate                    : 17.8 kb/s
    Count of elements           : 3026
    Stream size                 : 16.4 MiB (0%)
    Language                    : Korean
    Default                     : No
    Forced                      : No
    
    Text #30
    ID                          : 32
    Format                      : PGS
    Muxing mode                 : zlib
    Codec ID                    : S_HDMV/PGS
    Codec ID/Info               : Picture based subtitle format used on BDs/HD-DVDs
    Duration                    : 2 h 9 min
    Bit rate                    : 33.6 kb/s
    Count of elements           : 3084
    Stream size                 : 31.1 MiB (0%)
    Language                    : Thai
    Default                     : No
    Forced                      : No
    
    Menu
    00:00:00.000                : en:00:00:00.000
    00:03:13.026                : en:00:03:13.026
    00:07:41.961                : en:00:07:41.961
    00:11:30.023                : en:00:11:30.023
    00:16:05.131                : en:00:16:05.131
    00:23:10.055                : en:00:23:10.055
    00:27:16.301                : en:00:27:16.301
    00:34:01.039                : en:00:34:01.039
    00:38:47.825                : en:00:38:47.825
    00:44:29.333                : en:00:44:29.333
    00:49:29.300                : en:00:49:29.300
    00:53:29.706                : en:00:53:29.706
    00:59:45.916                : en:00:59:45.916
    01:04:02.338                : en:01:04:02.338
    01:08:49.625                : en:01:08:49.625
    01:12:58.874                : en:01:12:58.874
    01:17:48.330                : en:01:17:48.330
    01:23:17.826                : en:01:23:17.826
    01:35:50.411                : en:01:35:50.411
    01:40:20.514                : en:01:40:20.514
    01:45:11.972                : en:01:45:11.972
    01:49:04.371                : en:01:49:04.371
    01:55:07.734                : en:01:55:07.734
    02:05:01.828                : en:02:05:01.828
    Download - Mirror 1:
    Download - Mirror 2:
     
  2. Loading...


Share This Page