Google Drive The Sandlot 1993 BluRay 1080p DTS-HD MA 5.1 AVC REMUX-FraMeSToR

Discussion in 'BD REMUX | 1080p' started by DDLbase, Mar 19, 2020.

  1. DDLbase

    DDLbase Administrator Staff Member

    [​IMG]

    The Sandlot (1993)

    [​IMG] 7.8/10 [​IMG] 73,276

    Plot

    The Sandlot (released in some countries as The Sandlot Kids) is a 1993 American coming-of-age comedy film co-written, directed, and narrated by David Mickey Evans which tells the story of a group of young baseball players during the summer of 1962. It stars Tom Guiry, Mike Vitar, Karen Allen, Denis Leary, and James Earl Jones. The filming locations were in Midvale, Salt Lake City, and Ogden, Utah. It grossed $33 million worldwide and has become a cult film.

    Movie Info
    • Rating: PG
    • Genre: Comedy, Drama, Family, Sport
    • Directed By: David Mickey Evans
    • Written By: David Mickey Evans, Robert Gunter
    • Starring: Art LaFleur, Tom Guiry, Mike Vitar, Patrick Renna
    • Release Date: 07 Apr 1993
    • Runtime: 101 min
    • On Disk/Streaming: 29 Jan 2002
    • Box Office (USA): N/A
    • Awards: 1 win.
    • Studio: 20th Century Fox
    [​IMG]
    [​IMG]
    [​IMG]
    [​IMG]

    Code:
    General
    Unique ID                                : 160661444548669914895510422958187785333 (0x78DE44C94ADF11B128D2B5FC4ED8AC75)
    Complete name                            : The.Sandlot.1993.BluRay.1080p.DTS-HD.MA.5.1.AVC.REMUX-FraMeSToR.mkv
    Format                                   : Matroska
    Format version                           : Version 4 / Version 2
    File size                                : 19.6 GiB
    Duration                                 : 1 h 41 min
    Overall bit rate mode                    : Variable
    Overall bit rate                         : 27.7 Mb/s
    Movie name                               : The Sandlot
    Encoded date                             : UTC 2017-08-04 00:43:11
    Writing application                      : mkvmerge v9.6.0 ('Slave To Your Mind') 64bit
    Writing library                          : libebml v1.3.4 + libmatroska v1.4.5
    
    Video
    ID                                       : 1
    Format                                   : AVC
    Format/Info                              : Advanced Video Codec
    Format profile                           : [email protected]
    Format settings                          : CABAC / 4 Ref Frames
    Format settings, CABAC                   : Yes
    Format settings, ReFrames                : 4 frames
    Codec ID                                 : V_MPEG4/ISO/AVC
    Duration                                 : 1 h 41 min
    Bit rate mode                            : Variable
    Bit rate                                 : 23.3 Mb/s
    Maximum bit rate                         : 38.0 Mb/s
    Width                                    : 1 920 pixels
    Height                                   : 1 080 pixels
    Display aspect ratio                     : 16:9
    Frame rate mode                          : Constant
    Frame rate                               : 23.976 (24000/1001) FPS
    Color space                              : YUV
    Chroma subsampling                       : 4:2:0
    Bit depth                                : 8 bits
    Scan type                                : Progressive
    Bits/(Pixel*Frame)                       : 0.468
    Stream size                              : 16.5 GiB (84%)
    Default                                  : Yes
    Forced                                   : No
    Color range                              : Limited
    Color primaries                          : BT.709
    Transfer characteristics                 : BT.709
    Matrix coefficients                      : BT.709
    
    Audio
    ID                                       : 2
    Format                                   : DTS
    Format/Info                              : Digital Theater Systems
    Format profile                           : MA / Core
    Codec ID                                 : A_DTS
    Duration                                 : 1 h 41 min
    Bit rate mode                            : Variable / Constant
    Bit rate                                 : 4 373 kb/s / 1 509 kb/s
    Channel(s)                               : 6 channels
    Channel positions                        : Front: L C R, Side: L R, LFE
    Sampling rate                            : 48.0 kHz
    Frame rate                               : 93.750 FPS (512 SPF)
    Bit depth                                : 24 bits
    Compression mode                         : Lossless / Lossy
    Stream size                              : 3.09 GiB (16%)
    Title                                    : DTS-HD MA 5.1
    Language                                 : English
    Default                                  : Yes
    Forced                                   : No
    
    Text #1
    ID                                       : 3
    Format                                   : PGS
    Codec ID                                 : S_HDMV/PGS
    Codec ID/Info                            : Picture based subtitle format used on BDs/HD-DVDs
    Duration                                 : 1 h 40 min
    Bit rate                                 : 39.9 kb/s
    Count of elements                        : 3214
    Stream size                              : 28.6 MiB (0%)
    Title                                    : English (SDH)
    Language                                 : English
    Default                                  : No
    Forced                                   : No
    
    Text #2
    ID                                       : 4
    Format                                   : PGS
    Codec ID                                 : S_HDMV/PGS
    Codec ID/Info                            : Picture based subtitle format used on BDs/HD-DVDs
    Duration                                 : 1 h 40 min
    Bit rate                                 : 25.4 kb/s
    Count of elements                        : 1774
    Stream size                              : 18.2 MiB (0%)
    Title                                    : Spanish (Latin American)
    Language                                 : Spanish
    Default                                  : No
    Forced                                   : No
    
    Menu
    00:00:00.000                             : en:Legends
    00:03:00.972                             : en:The New Kid
    00:04:59.090                             : en:The Sandlot Kids
    00:08:28.341                             : en:Mom's Advice
    00:10:23.289                             : en:A Lesson From Dad
    00:13:40.278                             : en:Meet the Gang
    00:16:16.392                             : en:The Weenie
    00:23:35.581                             : en:The Thing Behind the Fence
    00:29:02.866                             : en:Legend of the Beast
    00:33:09.905                             : en:Wendy Peffercorn
    00:35:32.255                             : en:Squint's Big Move
    00:41:42.250                             : en:The Fourth of July
    00:44:12.275                             : en:A Challenge
    00:48:53.097                             : en:The Hard Stuff
    00:53:20.656                             : en:An Omen
    00:55:33.038                             : en:The Babe's Ball
    01:00:58.864                             : en:Buying Some Time
    01:02:52.102                             : en:Primitive Attempts
    01:06:07.130                             : en:Sucking It Up
    01:09:18.863                             : en:Hanging Out
    01:11:14.979                             : en:Science Against Nature
    01:14:20.498                             : en:Benny's Dream
    01:17:44.076                             : en:Benny and the Beast
    01:26:39.486                             : en:Saving the Beast
    01:28:50.367                             : en:Mr Mertle's Deal
    01:33:17.383                             : en:Things Work Out
    01:34:10.228                             : en:The Gang Grows Up
    01:37:22.837                             : en:End Titles
    Download:
     
  2. Loading...


Share This Page