Google Drive The Shawshank Redemption 1994 Hybrid 1080p BluRay REMUX AVC TrueHD 5.1-EPSiLON

Discussion in 'BD REMUX | 1080p' started by DDLbase, Nov 1, 2019.

  1. DDLbase

    DDLbase Administrator Staff Member

    [​IMG]

    The Shawshank Redemption (1994)

    [​IMG] 9.3/10 [​IMG] 2,139,341

    Plot

    The Shawshank Redemption is a 1994 American drama film written and directed by Frank Darabont, based on the 1982 Stephen King novella Rita Hayworth and Shawshank Redemption. It tells the story of banker Andy Dufresne (Tim Robbins), who is sentenced to life in Shawshank State Penitentiary for the murders of his wife and her lover, despite his claims of innocence. Over the following two decades, he befriends a fellow prisoner, contraband smuggler Ellis "Red" Redding (Morgan Freeman), and becomes instrumental in a money-laundering operation led by the prison warden Samuel Norton (Bob Gunton). William Sadler, Clancy Brown, Gil Bellows, and James Whitmore appear in supporting roles.
    Darabont purchased the film rights to King's story in 1987, but development did not begin until five years later when he wrote the script over an eight-week period. Two weeks after submitting his script to Castle Rock Entertainment, Darabont secured a $25 million budget to produce The Shawshank Redemption, which started pre-production in January 1993. While the film is set in Maine, principal photography took place from June to August 1993 almost entirely in Mansfield, Ohio, with the Ohio State Reformatory serving as the eponymous penitentiary. The project attracted many stars of the time for the role of Andy, including Tom Hanks, Tom Cruise, and Kevin Costner. Thomas Newman provided the film's score.
    While The Shawshank Redemption received positive reviews on its release, particularly for its story and the performances of Robbins and Freeman, it was a box office disappointment, earning only $16 million during its initial theatrical run. Many reasons were cited for its failure at the time, including competition from films such as Pulp Fiction and Forrest Gump, to the general unpopularity of prison films, lack of female characters, and even the title, which was considered to be confusing for audiences. Even so, it went on to receive multiple award nominations, including seven Academy Award nominations, and a theatrical re-release that, combined with international takings, increased the film's box office gross to $58.3 million.
    Over 320,000 VHS copies were shipped throughout the United States, and based on its award nominations and word of mouth, it became one of the top rented films of 1995. The broadcast rights were acquired following the purchase of Castle Rock by Turner Broadcasting System, and it was shown regularly on the TNT network starting in 1997, further increasing its popularity. It is now considered by many to be one of the greatest films of the 1990s. As of 2017, the film is still broadcast regularly, and is popular in several countries, with audience members and celebrities citing it as a source of inspiration, and naming the film as a favorite in various surveys. In 2015, the United States Library of Congress selected the film for preservation in the National Film Registry, finding it "culturally, historically, or aesthetically significant".

    Movie Info
    • Rating: R
    • Genre: Drama
    • Directed By: Frank Darabont
    • Written By: Stephen King (short story "Rita Hayworth and Shawshank Redemption"), Frank Darabont (screenplay)
    • Starring: Tim Robbins, Morgan Freeman, Bob Gunton, William Sadler
    • Release Date: 14 Oct 1994
    • Runtime: 142 min
    • On Disk/Streaming: 27 Jan 1998
    • Box Office (USA): N/A
    • Awards: Nominated for 7 Oscars. Another 19 wins & 32 nominations.
    • Studio: Columbia Pictures
    [​IMG]

    Code:
    General
    Unique ID                                : 96777032426334371207192556784542335360 (0x48CE941678977CC0B542226A2F78C180)
    Complete name                            : The.Shawshank.Redemption.1994.Hybrid.1080p.BluRay.REMUX.AVC.TrueHD.5.1-EPSiLON.mkv
    Format                                   : Matroska
    Format version                           : Version 4 / Version 2
    File size                                : 28.4 GiB
    Duration                                 : 2 h 22 min
    Overall bit rate mode                    : Variable
    Overall bit rate                         : 28.5 Mb/s
    Movie name                               : The Shawshank Redemption (1994)
    Encoded date                             : UTC 2019-10-25 13:17:09
    Writing application                      : mkvmerge v38.0.0 ('The Silent Type') 64-bit
    Writing library                          : libebml v1.3.9 + libmatroska v1.5.2
    IMDB                                     : tt0111161
    TMDB                                     : movie/278
    
    Video
    ID                                       : 1
    Format                                   : AVC
    Format/Info                              : Advanced Video Codec
    Format profile                           : [email protected]
    Format settings                          : CABAC / 2 Ref Frames
    Format settings, CABAC                   : Yes
    Format settings, ReFrames                : 2 frames
    Format settings, GOP                     : M=1, N=5
    Codec ID                                 : V_MPEG4/ISO/AVC
    Duration                                 : 2 h 22 min
    Bit rate mode                            : Variable
    Bit rate                                 : 24.9 Mb/s
    Maximum bit rate                         : 35.2 Mb/s
    Width                                    : 1 920 pixels
    Height                                   : 1 080 pixels
    Display aspect ratio                     : 16:9
    Frame rate mode                          : Constant
    Frame rate                               : 23.976 (24000/1001) FPS
    Color space                              : YUV
    Chroma subsampling                       : 4:2:0
    Bit depth                                : 8 bits
    Scan type                                : Progressive
    Bits/(Pixel*Frame)                       : 0.500
    Stream size                              : 24.8 GiB (87%)
    Title                                    : MPEG-4 AVC Video / 24889 kbps / 1080p / 24 fps / 16:9 / High Profile 4.1
    Language                                 : English
    Default                                  : Yes
    Forced                                   : No
    
    Audio #1
    ID                                       : 2
    Format                                   : TrueHD
    Codec ID                                 : A_TRUEHD
    Duration                                 : 2 h 22 min
    Bit rate mode                            : Variable
    Bit rate                                 : 1 423 kb/s
    Maximum bit rate                         : 2 688 kb/s
    Channel(s)                               : 6 channels
    Channel positions                        : Front: L C R, Side: L R, LFE
    Sampling rate                            : 48.0 kHz
    Frame rate                               : 1 200.000 FPS (40 SPF)
    Compression mode                         : Lossless
    Delay relative to video                  : 9 s 676 ms
    Stream size                              : 1.42 GiB (5%)
    Title                                    : Dolby TrueHD Audio / 5.1 / 48 kHz /  1423 kbps / 16-bit
    Language                                 : English
    Default                                  : Yes
    Forced                                   : No
    
    Audio #2
    ID                                       : 3
    Format                                   : AC-3
    Format/Info                              : Audio Coding 3
    Codec ID                                 : A_AC3
    Duration                                 : 2 h 22 min
    Bit rate mode                            : Constant
    Bit rate                                 : 640 kb/s
    Channel(s)                               : 6 channels
    Channel positions                        : Front: L C R, Side: L R, LFE
    Sampling rate                            : 48.0 kHz
    Frame rate                               : 31.250 FPS (1536 SPF)
    Bit depth                                : 16 bits
    Compression mode                         : Lossy
    Delay relative to video                  : 9 s 676 ms
    Stream size                              : 653 MiB (2%)
    Title                                    : Compatibility Track / Dolby Digital Audio / 5.1 / 48 kHz / 640 kbps
    Language                                 : English
    Service kind                             : Complete Main
    Default                                  : No
    Forced                                   : No
    
    Audio #3
    ID                                       : 4
    Format                                   : DTS
    Format/Info                              : Digital Theater Systems
    Codec ID                                 : A_DTS
    Duration                                 : 2 h 22 min
    Bit rate mode                            : Constant
    Bit rate                                 : 768 kb/s
    Channel(s)                               : 2 channels
    Channel positions                        : Front: L R
    Sampling rate                            : 48.0 kHz
    Frame rate                               : 93.750 FPS (512 SPF)
    Bit depth                                : 24 bits
    Compression mode                         : Lossy
    Delay relative to video                  : 9 s 676 ms
    Stream size                              : 783 MiB (3%)
    Title                                    : Commentary by Director Franck Darabont
    Language                                 : English
    Default                                  : No
    Forced                                   : No
    
    Text #1
    ID                                       : 5
    Format                                   : PGS
    Codec ID                                 : S_HDMV/PGS
    Codec ID/Info                            : Picture based subtitle format used on BDs/HD-DVDs
    Duration                                 : 2 h 16 min
    Bit rate                                 : 35.0 kb/s
    Count of elements                        : 3515
    Stream size                              : 34.1 MiB (0%)
    Title                                    : SDH
    Language                                 : English
    Default                                  : No
    Forced                                   : No
    
    Text #2
    ID                                       : 6
    Format                                   : PGS
    Codec ID                                 : S_HDMV/PGS
    Codec ID/Info                            : Picture based subtitle format used on BDs/HD-DVDs
    Duration                                 : 2 h 17 min
    Bit rate                                 : 23.1 kb/s
    Count of elements                        : 3482
    Stream size                              : 22.7 MiB (0%)
    Language                                 : Chinese
    Default                                  : No
    Forced                                   : No
    
    Text #3
    ID                                       : 7
    Format                                   : PGS
    Codec ID                                 : S_HDMV/PGS
    Codec ID/Info                            : Picture based subtitle format used on BDs/HD-DVDs
    Duration                                 : 2 h 17 min
    Bit rate                                 : 37.8 kb/s
    Count of elements                        : 2364
    Stream size                              : 37.2 MiB (0%)
    Language                                 : Danish
    Default                                  : No
    Forced                                   : No
    
    Text #4
    ID                                       : 8
    Format                                   : PGS
    Codec ID                                 : S_HDMV/PGS
    Codec ID/Info                            : Picture based subtitle format used on BDs/HD-DVDs
    Duration                                 : 2 h 17 min
    Bit rate                                 : 38.3 kb/s
    Count of elements                        : 2358
    Stream size                              : 37.7 MiB (0%)
    Language                                 : Finnish
    Default                                  : No
    Forced                                   : No
    
    Text #5
    ID                                       : 9
    Format                                   : PGS
    Codec ID                                 : S_HDMV/PGS
    Codec ID/Info                            : Picture based subtitle format used on BDs/HD-DVDs
    Duration                                 : 2 h 17 min
    Bit rate                                 : 24.6 kb/s
    Count of elements                        : 3044
    Stream size                              : 24.2 MiB (0%)
    Language                                 : French
    Default                                  : No
    Forced                                   : No
    
    Text #6
    ID                                       : 10
    Format                                   : PGS
    Codec ID                                 : S_HDMV/PGS
    Codec ID/Info                            : Picture based subtitle format used on BDs/HD-DVDs
    Duration                                 : 2 h 15 min
    Bit rate                                 : 44.0 kb/s
    Count of elements                        : 2093
    Stream size                              : 42.7 MiB (0%)
    Language                                 : German
    Default                                  : No
    Forced                                   : No
    
    Text #7
    ID                                       : 11
    Format                                   : PGS
    Codec ID                                 : S_HDMV/PGS
    Codec ID/Info                            : Picture based subtitle format used on BDs/HD-DVDs
    Duration                                 : 2 h 16 min
    Bit rate                                 : 21.8 kb/s
    Count of elements                        : 3050
    Stream size                              : 21.2 MiB (0%)
    Language                                 : Japanese
    Default                                  : No
    Forced                                   : No
    
    Text #8
    ID                                       : 12
    Format                                   : PGS
    Codec ID                                 : S_HDMV/PGS
    Codec ID/Info                            : Picture based subtitle format used on BDs/HD-DVDs
    Duration                                 : 2 h 17 min
    Bit rate                                 : 23.8 kb/s
    Count of elements                        : 3436
    Stream size                              : 23.4 MiB (0%)
    Language                                 : Korean
    Default                                  : No
    Forced                                   : No
    
    Text #9
    ID                                       : 13
    Format                                   : PGS
    Codec ID                                 : S_HDMV/PGS
    Codec ID/Info                            : Picture based subtitle format used on BDs/HD-DVDs
    Duration                                 : 2 h 17 min
    Bit rate                                 : 35.0 kb/s
    Count of elements                        : 2358
    Stream size                              : 34.5 MiB (0%)
    Language                                 : Norwegian
    Default                                  : No
    Forced                                   : No
    
    Text #10
    ID                                       : 14
    Format                                   : PGS
    Codec ID                                 : S_HDMV/PGS
    Codec ID/Info                            : Picture based subtitle format used on BDs/HD-DVDs
    Duration                                 : 2 h 17 min
    Bit rate                                 : 35.5 kb/s
    Count of elements                        : 3122
    Stream size                              : 34.9 MiB (0%)
    Title                                    : Iberian
    Language                                 : Portuguese
    Default                                  : No
    Forced                                   : No
    
    Text #11
    ID                                       : 15
    Format                                   : PGS
    Codec ID                                 : S_HDMV/PGS
    Codec ID/Info                            : Picture based subtitle format used on BDs/HD-DVDs
    Duration                                 : 2 h 17 min
    Bit rate                                 : 32.0 kb/s
    Count of elements                        : 3398
    Stream size                              : 31.5 MiB (0%)
    Title                                    : Brazilian
    Language                                 : Portuguese
    Default                                  : No
    Forced                                   : No
    
    Text #12
    ID                                       : 16
    Format                                   : PGS
    Codec ID                                 : S_HDMV/PGS
    Codec ID/Info                            : Picture based subtitle format used on BDs/HD-DVDs
    Duration                                 : 2 h 17 min
    Bit rate                                 : 32.4 kb/s
    Count of elements                        : 2746
    Stream size                              : 31.9 MiB (0%)
    Language                                 : Russian
    Default                                  : No
    Forced                                   : No
    
    Text #13
    ID                                       : 17
    Format                                   : PGS
    Codec ID                                 : S_HDMV/PGS
    Codec ID/Info                            : Picture based subtitle format used on BDs/HD-DVDs
    Duration                                 : 2 h 16 min
    Bit rate                                 : 37.0 kb/s
    Count of elements                        : 3620
    Stream size                              : 36.2 MiB (0%)
    Title                                    : Castilian
    Language                                 : Spanish
    Default                                  : No
    Forced                                   : No
    
    Text #14
    ID                                       : 18
    Format                                   : PGS
    Codec ID                                 : S_HDMV/PGS
    Codec ID/Info                            : Picture based subtitle format used on BDs/HD-DVDs
    Duration                                 : 2 h 17 min
    Bit rate                                 : 29.7 kb/s
    Count of elements                        : 3390
    Stream size                              : 29.2 MiB (0%)
    Title                                    : Latin American
    Language                                 : Spanish
    Default                                  : No
    Forced                                   : No
    
    Text #15
    ID                                       : 19
    Format                                   : PGS
    Codec ID                                 : S_HDMV/PGS
    Codec ID/Info                            : Picture based subtitle format used on BDs/HD-DVDs
    Duration                                 : 2 h 17 min
    Bit rate                                 : 35.7 kb/s
    Count of elements                        : 2358
    Stream size                              : 35.2 MiB (0%)
    Language                                 : Swedish
    Default                                  : No
    Forced                                   : No
    
    Text #16
    ID                                       : 20
    Format                                   : PGS
    Codec ID                                 : S_HDMV/PGS
    Codec ID/Info                            : Picture based subtitle format used on BDs/HD-DVDs
    Duration                                 : 2 h 20 min
    Bit rate                                 : 105 kb/s
    Count of elements                        : 4588
    Stream size                              : 105 MiB (0%)
    Title                                    : Commentary by Director Franck Darabont
    Language                                 : Chinese
    Default                                  : No
    Forced                                   : No
    
    Text #17
    ID                                       : 21
    Format                                   : PGS
    Codec ID                                 : S_HDMV/PGS
    Codec ID/Info                            : Picture based subtitle format used on BDs/HD-DVDs
    Duration                                 : 2 h 20 min
    Bit rate                                 : 78.3 kb/s
    Count of elements                        : 3107
    Stream size                              : 78.9 MiB (0%)
    Title                                    : Commentary by Director Franck Darabont
    Language                                 : German
    Default                                  : No
    Forced                                   : No
    
    Text #18
    ID                                       : 22
    Format                                   : PGS
    Codec ID                                 : S_HDMV/PGS
    Codec ID/Info                            : Picture based subtitle format used on BDs/HD-DVDs
    Duration                                 : 2 h 20 min
    Bit rate                                 : 47.2 kb/s
    Count of elements                        : 3573
    Stream size                              : 47.5 MiB (0%)
    Title                                    : Commentary by Director Franck Darabont
    Language                                 : Japanese
    Default                                  : No
    Forced                                   : No
    
    Menu
    00:00:00.000                             : en:Chapter 1
    00:04:41.114                             : en:Chapter 2
    00:06:40.817                             : en:Chapter 3
    00:10:08.316                             : en:Chapter 4
    00:13:47.076                             : en:Chapter 5
    00:18:00.913                             : en:Chapter 6
    00:23:44.256                             : en:Chapter 7
    00:29:02.074                             : en:Chapter 8
    00:33:33.845                             : en:Chapter 9
    00:38:51.913                             : en:Chapter 10
    00:41:07.256                             : en:Chapter 11
    00:42:41.642                             : en:Chapter 12
    00:46:15.398                             : en:Chapter 13
    00:48:15.434                             : en:Chapter 14
    00:51:22.538                             : en:Chapter 15
    00:57:20.103                             : en:Chapter 16
    01:00:28.458                             : en:Chapter 17
    01:05:46.818                             : en:Chapter 18
    01:07:17.659                             : en:Chapter 19
    01:11:04.677                             : en:Chapter 20
    01:13:54.221                             : en:Chapter 21
    01:15:56.552                             : en:Chapter 22
    01:21:09.239                             : en:Chapter 23
    01:23:59.952                             : en:Chapter 24
    01:29:27.279                             : en:Chapter 25
    01:32:11.484                             : en:Chapter 26
    01:35:38.149                             : en:Chapter 27
    01:38:29.862                             : en:Chapter 28
    01:40:39.367                             : en:Chapter 29
    01:47:24.146                             : en:Chapter 30
    01:50:46.640                             : en:Chapter 31
    01:54:32.115                             : en:Chapter 32
    02:00:36.521                             : en:Chapter 33
    02:04:10.318                             : en:Chapter 34
    02:05:51.377                             : en:Chapter 35
    02:08:26.824                             : en:Chapter 36
    02:10:14.515                             : en:Chapter 37
    02:12:57.136                             : en:Chapter 38
    02:16:28.722                             : en:Chapter 39
    02:18:08.572                             : en:Chapter 40
    Download:
     
  2. Loading...


Share This Page