Google Drive The.Short.History.Of.The.Long.Road.2020.1080p.WEB-DL.H264.AC3-EVO

Discussion in 'Web-DL / Webrip | 1080p' started by DDLbase, Jun 24, 2020.

  1. DDLbase

    DDLbase Administrator Staff Member

    [​IMG]

    Rating: 6.6/10 based on 303 user ratings

    Genre: Drama

    For teenage Nola (Sabrina Carpenter), home is the open road. Her self-reliant father (Steven Ogg) is her anchor in a life of transience. The pair crisscross the United States in a lovingly …

    [​IMG]
    Code:
    General
    Unique ID                   : 113373308547713734759188266691619206359 (0x554AE7ACF10D416AE85EA4F8B63C34D7)
    Complete name               : The.Short.History.Of.The.Long.Road.2020.1080p.WEB-DL.H264.AC3-EVO.mkv
    Format                      : Matroska
    Format version              : Version 4
    File size                   : 3.53 GiB
    Duration                    : 1 h 34 min
    Overall bit rate            : 5 347 kb/s
    Encoded date                : UTC 2020-06-16 04:16:13
    Writing application         : mkvmerge v35.0.0 ('All The Love In The World') 64-bit
    Writing library             : libebml v1.3.9 + libmatroska v1.5.2
    
    Video
    ID                          : 2
    Format                      : AVC
    Format/Info                 : Advanced Video Codec
    Format profile              : [email protected]
    Format settings             : CABAC / 4 Ref Frames
    Format settings, CABAC      : Yes
    Format settings, Reference  : 4 frames
    Codec ID                    : V_MPEG4/ISO/AVC
    Duration                    : 1 h 34 min
    Bit rate                    : 4 962 kb/s
    Width                       : 1 912 pixels
    Height                      : 1 028 pixels
    Display aspect ratio        : 1.85:1
    Frame rate mode             : Constant
    Frame rate                  : 23.976 (24000/1001) FPS
    Color space                 : YUV
    Chroma subsampling          : 4:2:0
    Bit depth                   : 8 bits
    Scan type                   : Progressive
    Bits/(Pixel*Frame)          : 0.105
    Stream size                 : 3.27 GiB (93%)
    Language                    : English
    Default                     : Yes
    Forced                      : No
    Color range                 : Limited
    Color primaries             : BT.709
    Transfer characteristics    : BT.709
    Matrix coefficients         : BT.709
    
    Audio
    ID                          : 1
    Format                      : AC-3
    Format/Info                 : Audio Coding 3
    Commercial name             : Dolby Digital
    Codec ID                    : A_AC3
    Duration                    : 1 h 34 min
    Bit rate mode               : Constant
    Bit rate                    : 384 kb/s
    Channel(s)                  : 6 channels
    Channel layout              : L R C LFE Ls Rs
    Sampling rate               : 48.0 kHz
    Frame rate                  : 31.250 FPS (1536 SPF)
    Compression mode            : Lossy
    Delay relative to video     : -42 ms
    Stream size                 : 259 MiB (7%)
    Language                    : English
    Service kind                : Complete Main
    Default                     : Yes
    Forced                      : No
    
    Menu
    00:00:00.000                : en:1
    00:03:10.000                : en:2
    00:12:50.000                : en:3
    00:23:31.000                : en:4
    00:34:07.000                : en:5
    00:44:06.000                : en:6
    00:53:30.000                : en:7
    01:03:01.000                : en:8
    01:13:15.000                : en:9
    01:23:28.000                : en:10
    01:29:32.000                : en:11
    Download:
     
  2. Loading...


Share This Page