Google Drive The Slumber Party Massacre 1982 BluRay 1080p FLAC 2.0 AVC REMUX-FraMeSToR

Discussion in 'BD REMUX | 1080p' started by DDLbase, Mar 23, 2020.

  1. DDLbase

    DDLbase Administrator Staff Member

    [​IMG]

    The Slumber Party Massacre (1982)

    [​IMG] 5.7/10[​IMG] 9,507

    Plot

    An eighteen-year-old high school girl is left at home by her parents and she decides to have a slumber party. There is friction between some of the invited guests and the new girl, who is better at basketball than they, so the new girl decides to stay at home (which is conveniently across the street from the host's house). Meanwhile, a murderer of five people with a propensity for power tools has escaped and is at large, and eventually makes his way to the party, where the guests begin experiencing an attrition problem, with only the new girl to help them.

    Movie Info
    • Rating: R
    • Genre: Horror
    • Directed By: Amy Holden Jones
    • Written By: Rita Mae Brown
    • Starring: Michelle Michaels, Robin Stille, Michael Villella, Debra De Liso
    • Release Date: 12 Nov 1982
    • Runtime: 77 min
    • Production: New Concorde Home Entertainment
    Code:
    General
    Unique ID                                : 166333003897420607023883366570329258704 (0x7D2292405CC58470576AB0EBDA4A3AD0)
    Complete name                            : The.Slumber.Party.Massacre.1982.BluRay.1080p.FLAC.2.0.AVC.REMUX-FraMeSToR.mkv
    Format                                   : Matroska
    Format version                           : Version 4 / Version 2
    File size                                : 18.8 GiB
    Duration                                 : 1 h 16 min
    Overall bit rate mode                    : Variable
    Overall bit rate                         : 35.3 Mb/s
    Movie name                               : The Slumber Party Massacre (1982)
    Encoded date                             : UTC 2020-01-29 12:45:16
    Writing application                      : mkvmerge v37.0.0 ('Leave It') 64-bit
    Writing library                          : libebml v1.3.9 + libmatroska v1.5.2
    IMDB                                     : tt0084695
    TMDB                                     : movie/27475
    
    Video
    ID                                       : 1
    Format                                   : AVC
    Format/Info                              : Advanced Video Codec
    Format profile                           : [email protected]
    Format settings                          : CABAC / 4 Ref Frames
    Format settings, CABAC                   : Yes
    Format settings, ReFrames                : 4 frames
    Codec ID                                 : V_MPEG4/ISO/AVC
    Duration                                 : 1 h 16 min
    Bit rate mode                            : Constant
    Bit rate                                 : 36.0 Mb/s
    Width                                    : 1 920 pixels
    Height                                   : 1 080 pixels
    Display aspect ratio                     : 16:9
    Frame rate mode                          : Constant
    Frame rate                               : 23.976 (24000/1001) FPS
    Color space                              : YUV
    Chroma subsampling                       : 4:2:0
    Bit depth                                : 8 bits
    Scan type                                : Progressive
    Bits/(Pixel*Frame)                       : 0.724
    Stream size                              : 18.6 GiB (99%)
    Default                                  : Yes
    Forced                                   : No
    
    Audio #1
    ID                                       : 2
    Format                                   : FLAC
    Format/Info                              : Free Lossless Audio Codec
    Codec ID                                 : A_FLAC
    Duration                                 : 1 h 16 min
    Bit rate mode                            : Variable
    Bit rate                                 : 248 kb/s
    Channel(s)                               : 2 channels
    Channel positions                        : Front: L R
    Sampling rate                            : 48.0 kHz
    Frame rate                               : 11.719 FPS (4096 SPF)
    Bit depth                                : 16 bits
    Stream size                              : 135 MiB (1%)
    Title                                    : FLAC 2.0
    Writing library                          : libFLAC 1.3.3 (UTC 2019-08-04)
    Language                                 : English
    Default                                  : Yes
    Forced                                   : No
    
    Audio #2
    ID                                       : 3
    Format                                   : AC-3
    Format/Info                              : Audio Coding 3
    Codec ID                                 : A_AC3
    Duration                                 : 1 h 16 min
    Bit rate mode                            : Constant
    Bit rate                                 : 192 kb/s
    Channel(s)                               : 2 channels
    Channel positions                        : Front: L R
    Sampling rate                            : 48.0 kHz
    Frame rate                               : 31.250 FPS (1536 SPF)
    Bit depth                                : 16 bits
    Compression mode                         : Lossy
    Stream size                              : 105 MiB (1%)
    Title                                    : Commentary by Director Amy Holden Jones and Actors Michael Villella and Debra De Liso
    Language                                 : English
    Service kind                             : Complete Main
    Default                                  : No
    Forced                                   : No
    
    Text
    ID                                       : 4
    Format                                   : PGS
    Codec ID                                 : S_HDMV/PGS
    Codec ID/Info                            : Picture based subtitle format used on BDs/HD-DVDs
    Duration                                 : 1 h 15 min
    Bit rate                                 : 33.6 kb/s
    Count of elements                        : 1626
    Stream size                              : 18.0 MiB (0%)
    Title                                    : English (SDH)
    Language                                 : English
    Default                                  : No
    Forced                                   : No
    
    Menu
    00:00:00.000                             : en:Chapter 1
    00:07:41.711                             : en:Chapter 2
    00:16:11.429                             : en:Chapter 3
    00:21:36.879                             : en:Chapter 4
    00:25:47.588                             : en:Chapter 5
    00:31:04.654                             : en:Chapter 6
    00:38:08.578                             : en:Chapter 7
    00:47:52.536                             : en:Chapter 8
    00:54:30.642                             : en:Chapter 9
    01:01:06.162                             : en:Chapter 10
    01:07:55.321                             : en:Chapter 11
    01:14:40.893                             : en:Chapter 12
    Download:
     
  2. Loading...


Share This Page