Google Drive The.Spy.Who.Dumped.Me.2018.1080p.BluRay.x264-DRONES

Discussion in 'BDRip | 720p/1080p' started by DDLbase, Aug 12, 2020.

  1. DDLbase

    DDLbase Administrator Staff Member

    [​IMG]

    Rating: 6.0/10 based on 65,264 user ratings

    Genres: Action, Adventure, Comedy

    Audrey and Morgan are best friends who unwittingly become entangled in an international conspiracy when one of the women discovers the boyfriend who dumped her was actually a spy.

    [​IMG]
    Code:
    General
    Unique ID                   : 210379951740513229167597087794089297952 (0x9E45B472B9DA2236BA0E55C1C2C60820)
    Complete name               : The.Spy.Who.Dumped.Me.2018.1080p.BluRay.x264-DRONES.mkv
    Format                      : Matroska
    Format version              : Version 4
    File size                   : 7.65 GiB
    Duration                    : 1 h 56 min
    Overall bit rate            : 9 366 kb/s
    Encoded date                : UTC 2018-10-18 04:58:10
    Writing application         : mkvmerge v8.3.0 ('Over the Horizon') 64bit
    Writing library             : libebml v1.3.1 + libmatroska v1.4.2
    
    Video
    ID                          : 1
    Format                      : AVC
    Format/Info                 : Advanced Video Codec
    Format profile              : [email protected]
    Format settings             : CABAC / 5 Ref Frames
    Format settings, CABAC      : Yes
    Format settings, Reference  : 5 frames
    Codec ID                    : V_MPEG4/ISO/AVC
    Duration                    : 1 h 56 min
    Bit rate                    : 8 727 kb/s
    Width                       : 1 920 pixels
    Height                      : 800 pixels
    Display aspect ratio        : 2.40:1
    Frame rate mode             : Constant
    Frame rate                  : 23.976 FPS
    Color space                 : YUV
    Chroma subsampling          : 4:2:0
    Bit depth                   : 8 bits
    Scan type                   : Progressive
    Bits/(Pixel*Frame)          : 0.237
    Stream size                 : 7.13 GiB (93%)
    Writing library             : x264 core 157 r2932 303c484
    Encoding settings           : cabac=1 / ref=5 / deblock=1:0:0 / analyse=0x3:0x133 / me=umh / subme=7 / psy=1 / psy_rd=1.00:0.00 / mixed_ref=1 / me_range=16 / chroma_me=1 / trellis=1 / 8x8dct=1 / cqm=0 / deadzone=21,11 / fast_pskip=0 / chroma_qp_offset=-2 / threads=25 / lookahead_threads=4 / sliced_threads=0 / nr=0 / decimate=1 / interlaced=0 / bluray_compat=0 / constrained_intra=0 / bframes=3 / b_pyramid=2 / b_adapt=1 / b_bias=0 / direct=1 / weightb=1 / open_gop=0 / weightp=2 / keyint=250 / keyint_min=23 / scenecut=40 / intra_refresh=0 / rc_lookahead=40 / rc=2pass / mbtree=1 / bitrate=8727 / ratetol=1.0 / qcomp=0.60 / qpmin=0 / qpmax=69 / qpstep=4 / cplxblur=20.0 / qblur=0.5 / ip_ratio=1.40 / aq=1:1.00
    Language                    : English
    Default                     : Yes
    Forced                      : No
    
    Audio
    ID                          : 2
    Format                      : AC-3
    Format/Info                 : Audio Coding 3
    Commercial name             : Dolby Digital
    Codec ID                    : A_AC3
    Duration                    : 1 h 56 min
    Bit rate mode               : Constant
    Bit rate                    : 640 kb/s
    Channel(s)                  : 6 channels
    Channel layout              : L R C LFE Ls Rs
    Sampling rate               : 48.0 kHz
    Frame rate                  : 31.250 FPS (1536 SPF)
    Compression mode            : Lossy
    Stream size                 : 535 MiB (7%)
    Language                    : English
    Service kind                : Complete Main
    Default                     : Yes
    Forced                      : No
    
    Menu
    00:00:00.000                : en:00:00:00.000
    00:07:32.410                : en:00:07:32.410
    00:14:08.097                : en:00:14:08.097
    00:20:44.535                : en:00:20:44.535
    00:28:28.040                : en:00:28:28.040
    00:35:15.864                : en:00:35:15.864
    00:41:22.438                : en:00:41:22.438
    00:47:24.675                : en:00:47:24.675
    00:52:19.136                : en:00:52:19.136
    01:02:37.295                : en:01:02:37.295
    01:09:52.146                : en:01:09:52.146
    01:14:41.644                : en:01:14:41.644
    01:23:34.551                : en:01:23:34.551
    01:26:44.449                : en:01:26:44.449
    01:41:58.612                : en:01:41:58.612
    01:46:01.313                : en:01:46:01.313
    Download:
     
  2. Loading...


Share This Page