MEGA The.Trust.2016.BluRay.1080p.DTS-HD.MA.5.1.AVC.REMUX-FraMeSToR

Discussion in 'BD REMUX | 1080p' started by DDLbase, Jun 6, 2019.

  1. DDLbase

    DDLbase Administrator Staff Member

    [​IMG]

    Waters and Stone are two nobody police officers working dull administrative jobs and making extra money selling stolen Civil Service Exams to other officers. When Stone hears a story about a heroin dealer quickly beating his extremely high bail, the two friends set into motion a plan to find the origin of such a large amount of cash. Through diligent police work they follow a trail that leads directly to a custom bank-style vault built into the back room freezer of a small grocery store. They put a plan into motion to rob the vault and split whatever they find inside. But by the time they figure out what the vault contains, it’s already too late to turn back.

    [​IMG] [​IMG] [​IMG] [​IMG] [​IMG] [​IMG]

    Code:
    Format                                   : Matroska
    Format version                           : Version 4 / Version 2
    File size                                : 23.2 GiB
    Duration                                 : 1 h 31 min
    Overall bit rate                         : 36.3 Mb/s
    Movie name                               : The Trust
    Encoded date                             : UTC 2016-04-07 22:44:36
    Writing application                      : mkvmerge v9.0.1 ('Obstacles') 64bit
    Writing library                          : libebml v1.3.3 + libmatroska v1.4.4
    
    Video
    ID                                       : 1
    Format                                   : AVC
    Format/Info                              : Advanced Video Codec
    Format profile                           : [email protected]
    Format settings, CABAC                   : Yes
    Format settings, ReFrames                : 4 frames
    Codec ID                                 : V_MPEG4/ISO/AVC
    Duration                                 : 1 h 31 min
    Bit rate mode                            : Constant
    Bit rate                                 : 35.0 Mb/s
    Width                                    : 1 920 pixels
    Height                                   : 1 080 pixels
    Display aspect ratio                     : 16:9
    Frame rate mode                          : Constant
    Frame rate                               : 23.976 (24000/1001) FPS
    Standard                                 : NTSC
    Color space                              : YUV
    Chroma subsampling                       : 4:2:0
    Bit depth                                : 8 bits
    Scan type                                : Progressive
    Bits/(Pixel*Frame)                       : 0.704
    Stream size                              : 21.7 GiB (93%)
    Default                                  : Yes
    Forced                                   : No
    Color range                              : Limited
    Color primaries                          : BT.709
    Transfer characteristics                 : BT.709
    Matrix coefficients                      : BT.709
    
    Audio
    ID                                       : 2
    Format                                   : DTS
    Format/Info                              : Digital Theater Systems
    Format profile                           : MA / Core
    Mode                                     : 16
    Format settings, Endianness              : Big
    Codec ID                                 : A_DTS
    Duration                                 : 1 h 31 min
    Bit rate mode                            : Variable / Constant
    Bit rate                                 : 2 426 kb/s / 1 509 kb/s
    Channel(s)                               : 6 channels
    Channel positions                        : Front: L C R, Side: L R, LFE
    Sampling rate                            : 48.0 kHz
    Frame rate                               : 93.750 FPS (512 spf)
    Bit depth                                : 16 bits
    Compression mode                         : Lossless / Lossy
    Stream size                              : 1.55 GiB (7%)
    Title                                    : DTS-HD MA 5.1
    Language                                 : English
    Default                                  : Yes
    Forced                                   : No
    
    Text #1
    ID                                       : 3
    Format                                   : PGS
    Codec ID                                 : S_HDMV/PGS
    Codec ID/Info                            : Picture based subtitle format used on BDs/HD-DVDs
    Duration                                 : 50 s 8 ms
    Bit rate                                 : 20.0 kb/s
    Count of elements                        : 16
    Stream size                              : 122 KiB (0%)
    Title                                    : English (Forced only)
    Language                                 : English
    Default                                  : Yes
    Forced                                   : No
    
    Text #2
    ID                                       : 4
    Format                                   : PGS
    Codec ID                                 : S_HDMV/PGS
    Codec ID/Info                            : Picture based subtitle format used on BDs/HD-DVDs
    Duration                                 : 1 h 23 min
    Bit rate                                 : 19.6 kb/s
    Count of elements                        : 1314
    Stream size                              : 11.7 MiB (0%)
    Title                                    : German
    Language                                 : German
    Default                                  : No
    Forced                                   : No
    
    Menu
    00:00:00.000                             : en:Chapter 1
    00:08:26.047                             : en:Chapter 2
    00:15:33.265                             : en:Chapter 3
    00:20:30.729                             : en:Chapter 4
    00:28:15.610                             : en:Chapter 5
    00:35:00.598                             : en:Chapter 6
    00:40:28.509                             : en:Chapter 7
    00:48:53.847                             : en:Chapter 8
    00:56:25.924                             : en:Chapter 9
    01:04:44.171                             : en:Chapter 10
    01:14:14.366                             : en:Chapter 11
    01:23:31.965                             : en:Chapter 12
    Download:
     
  2. Loading...


Share This Page