Google Drive The.Unforgivable.2021.2160p.NF.WEB-DL.DDP5.1.Atmos.HDR.HEVC-CMRG

Discussion in 'Web-DL / Webrip | 4K' started by DDLbase, Dec 12, 2021.

  1. DDLbase

    DDLbase Administrator Staff Member

    [​IMG]

    Rating: 7.2/10 based on 12,464 user ratings

    Genres: Crime, Drama

    A woman is released from prison after serving a sentence for a violent crime and re-enters a society that refuses to forgive her past.

    [​IMG]
    Code:
    General
    Unique ID                   : 305873430177227028105581629452938493774 (0xE61D147033DE64BA43B445AF91D1BF4E)
    Complete name               : The.Unforgivable.2021.2160p.NF.WEB-DL.DDP5.1.Atmos.HDR.HEVC-CMRG.mkv
    Format                      : Matroska
    Format version              : Version 4
    File size                   : 12.8 GiB
    Duration                    : 1 h 54 min
    Overall bit rate            : 16.0 Mb/s
    Encoded date                : UTC 2021-12-10 08:28:50
    Writing application         : mkvmerge v50.0.0 ('Awakenings') 64-bit
    Writing library             : libebml v1.4.0 + libmatroska v1.6.2
    
    Video
    ID                          : 1
    Format                      : HEVC
    Format/Info                 : High Efficiency Video Coding
    Format profile              : Main [email protected]@Main
    HDR format                  : SMPTE ST 2086, HDR10 compatible
    Codec ID                    : V_MPEGH/ISO/HEVC
    Duration                    : 1 h 52 min
    Bit rate                    : 15.5 Mb/s
    Width                       : 3 840 pixels
    Height                      : 2 160 pixels
    Display aspect ratio        : 16:9
    Frame rate mode             : Constant
    Frame rate                  : 24.000 FPS
    Color space                 : YUV
    Chroma subsampling          : 4:2:0 (Type 2)
    Bit depth                   : 10 bits
    Bits/(Pixel*Frame)          : 0.078
    Stream size                 : 12.2 GiB (95%)
    Default                     : Yes
    Forced                      : No
    Color range                 : Limited
    Color primaries             : BT.2020
    Transfer characteristics    : PQ
    Matrix coefficients         : BT.2020 non-constant
    Mastering display color pri : Display P3
    Mastering display luminance : min: 0.0050 cd/m2, max: 4000 cd/m2
    Maximum Content Light Level : 1559 cd/m2
    Maximum Frame-Average Light : 501 cd/m2
    
    Audio
    ID                          : 2
    Format                      : E-AC-3 JOC
    Format/Info                 : Enhanced AC-3 with Joint Object Coding
    Commercial name             : Dolby Digital Plus with Dolby Atmos
    Codec ID                    : A_EAC3
    Duration                    : 1 h 54 min
    Bit rate mode               : Constant
    Bit rate                    : 768 kb/s
    Channel(s)                  : 6 channels
    Channel layout              : L R C LFE Ls Rs
    Sampling rate               : 48.0 kHz
    Frame rate                  : 31.250 FPS (1536 SPF)
    Compression mode            : Lossy
    Stream size                 : 627 MiB (5%)
    Title                       : English
    Language                    : English
    Service kind                : Complete Main
    Default                     : No
    Forced                      : No
    Complexity index            : 16
    Number of dynamic objects   : 15
    Bed channel count           : 1 channel
    Bed channel configuration   : LFE
    
    Text #1
    ID                          : 3
    Format                      : UTF-8
    Codec ID                    : S_TEXT/UTF8
    Codec ID/Info               : UTF-8 Plain Text
    Duration                    : 1 h 51 min
    Bit rate                    : 71 b/s
    Count of elements           : 964
    Stream size                 : 58.2 KiB (0%)
    Title                       : Arabic
    Language                    : Arabic
    Default                     : No
    Forced                      : No
    
    Text #2
    ID                          : 4
    Format                      : UTF-8
    Codec ID                    : S_TEXT/UTF8
    Codec ID/Info               : UTF-8 Plain Text
    Duration                    : 1 h 51 min
    Bit rate                    : 38 b/s
    Count of elements           : 973
    Stream size                 : 31.7 KiB (0%)
    Title                       : Chinese Simplified
    Language                    : Chinese
    Default                     : No
    Forced                      : No
    
    Text #3
    ID                          : 5
    Format                      : UTF-8
    Codec ID                    : S_TEXT/UTF8
    Codec ID/Info               : UTF-8 Plain Text
    Duration                    : 1 h 51 min
    Bit rate                    : 36 b/s
    Count of elements           : 973
    Stream size                 : 30.1 KiB (0%)
    Title                       : Chinese Traditional
    Language                    : Chinese
    Default                     : No
    Forced                      : No
    
    Text #4
    ID                          : 6
    Format                      : UTF-8
    Codec ID                    : S_TEXT/UTF8
    Codec ID/Info               : UTF-8 Plain Text
    Duration                    : 1 h 51 min
    Bit rate                    : 36 b/s
    Count of elements           : 946
    Stream size                 : 29.7 KiB (0%)
    Title                       : Czech
    Language                    : Czech
    Default                     : No
    Forced                      : No
    
    Text #5
    ID                          : 7
    Format                      : UTF-8
    Codec ID                    : S_TEXT/UTF8
    Codec ID/Info               : UTF-8 Plain Text
    Duration                    : 1 h 51 min
    Bit rate                    : 33 b/s
    Count of elements           : 896
    Stream size                 : 27.8 KiB (0%)
    Title                       : Danish
    Language                    : Danish
    Default                     : No
    Forced                      : No
    
    Text #6
    ID                          : 8
    Format                      : UTF-8
    Codec ID                    : S_TEXT/UTF8
    Codec ID/Info               : UTF-8 Plain Text
    Duration                    : 1 h 51 min
    Bit rate                    : 32 b/s
    Count of elements           : 840
    Stream size                 : 26.8 KiB (0%)
    Title                       : Dutch
    Language                    : Dutch
    Default                     : No
    Forced                      : No
    
    Text #7
    ID                          : 9
    Format                      : UTF-8
    Codec ID                    : S_TEXT/UTF8
    Codec ID/Info               : UTF-8 Plain Text
    Duration                    : 1 h 51 min
    Bit rate                    : 47 b/s
    Count of elements           : 1178
    Stream size                 : 38.8 KiB (0%)
    Title                       : English [CC]
    Language                    : English
    Default                     : No
    Forced                      : No
    
    Text #8
    ID                          : 10
    Format                      : UTF-8
    Codec ID                    : S_TEXT/UTF8
    Codec ID/Info               : UTF-8 Plain Text
    Duration                    : 1 h 43 min
    Bit rate                    : 43 b/s
    Count of elements           : 998
    Stream size                 : 32.9 KiB (0%)
    Title                       : English
    Language                    : English
    Default                     : No
    Forced                      : No
    
    Text #9
    ID                          : 11
    Format                      : UTF-8
    Codec ID                    : S_TEXT/UTF8
    Codec ID/Info               : UTF-8 Plain Text
    Duration                    : 1 h 51 min
    Bit rate                    : 33 b/s
    Count of elements           : 861
    Stream size                 : 27.6 KiB (0%)
    Title                       : Finnish
    Language                    : Finnish
    Default                     : No
    Forced                      : No
    
    Text #10
    ID                          : 12
    Format                      : UTF-8
    Codec ID                    : S_TEXT/UTF8
    Codec ID/Info               : UTF-8 Plain Text
    Duration                    : 1 h 51 min
    Bit rate                    : 34 b/s
    Count of elements           : 952
    Stream size                 : 28.3 KiB (0%)
    Title                       : French
    Language                    : French
    Default                     : No
    Forced                      : No
    
    Text #11
    ID                          : 13
    Format                      : UTF-8
    Codec ID                    : S_TEXT/UTF8
    Codec ID/Info               : UTF-8 Plain Text
    Duration                    : 1 h 51 min
    Bit rate                    : 34 b/s
    Count of elements           : 949
    Stream size                 : 28.4 KiB (0%)
    Title                       : German
    Language                    : German
    Default                     : No
    Forced                      : No
    
    Text #12
    ID                          : 14
    Format                      : UTF-8
    Codec ID                    : S_TEXT/UTF8
    Codec ID/Info               : UTF-8 Plain Text
    Duration                    : 1 h 51 min
    Bit rate                    : 59 b/s
    Count of elements           : 968
    Stream size                 : 49.1 KiB (0%)
    Title                       : Greek
    Language                    : Greek
    Default                     : No
    Forced                      : No
    
    Text #13
    ID                          : 15
    Format                      : UTF-8
    Codec ID                    : S_TEXT/UTF8
    Codec ID/Info               : UTF-8 Plain Text
    Duration                    : 1 h 51 min
    Bit rate                    : 61 b/s
    Count of elements           : 957
    Stream size                 : 50.5 KiB (0%)
    Title                       : Hebrew
    Language                    : Hebrew
    Default                     : No
    Forced                      : No
    
    Text #14
    ID                          : 16
    Format                      : UTF-8
    Codec ID                    : S_TEXT/UTF8
    Codec ID/Info               : UTF-8 Plain Text
    Duration                    : 1 h 51 min
    Bit rate                    : 33 b/s
    Count of elements           : 952
    Stream size                 : 27.1 KiB (0%)
    Title                       : Croatian
    Language                    : Croatian
    Default                     : No
    Forced                      : No
    
    Text #15
    ID                          : 17
    Format                      : UTF-8
    Codec ID                    : S_TEXT/UTF8
    Codec ID/Info               : UTF-8 Plain Text
    Duration                    : 1 h 51 min
    Bit rate                    : 34 b/s
    Count of elements           : 952
    Stream size                 : 28.7 KiB (0%)
    Title                       : Hungarian
    Language                    : Hungarian
    Default                     : No
    Forced                      : No
    
    Text #16
    ID                          : 18
    Format                      : UTF-8
    Codec ID                    : S_TEXT/UTF8
    Codec ID/Info               : UTF-8 Plain Text
    Duration                    : 1 h 51 min
    Bit rate                    : 35 b/s
    Count of elements           : 970
    Stream size                 : 29.2 KiB (0%)
    Title                       : Indonesian
    Language                    : Indonesian
    Default                     : No
    Forced                      : No
    
    Text #17
    ID                          : 19
    Format                      : UTF-8
    Codec ID                    : S_TEXT/UTF8
    Codec ID/Info               : UTF-8 Plain Text
    Duration                    : 1 h 51 min
    Bit rate                    : 35 b/s
    Count of elements           : 954
    Stream size                 : 28.8 KiB (0%)
    Title                       : Italian
    Language                    : Italian
    Default                     : No
    Forced                      : No
    
    Text #18
    ID                          : 20
    Format                      : UTF-8
    Codec ID                    : S_TEXT/UTF8
    Codec ID/Info               : UTF-8 Plain Text
    Duration                    : 1 h 51 min
    Bit rate                    : 34 b/s
    Count of elements           : 1057
    Stream size                 : 28.5 KiB (0%)
    Title                       : Japanese
    Language                    : Japanese
    Default                     : No
    Forced                      : No
    
    Text #19
    ID                          : 21
    Format                      : UTF-8
    Codec ID                    : S_TEXT/UTF8
    Codec ID/Info               : UTF-8 Plain Text
    Duration                    : 1 h 51 min
    Bit rate                    : 42 b/s
    Count of elements           : 980
    Stream size                 : 34.9 KiB (0%)
    Title                       : Korean
    Language                    : Korean
    Default                     : No
    Forced                      : No
    
    Text #20
    ID                          : 22
    Format                      : UTF-8
    Codec ID                    : S_TEXT/UTF8
    Codec ID/Info               : UTF-8 Plain Text
    Duration                    : 1 h 51 min
    Bit rate                    : 33 b/s
    Count of elements           : 946
    Stream size                 : 27.3 KiB (0%)
    Title                       : Malay
    Language                    : Malay
    Default                     : No
    Forced                      : No
    
    Text #21
    ID                          : 23
    Format                      : UTF-8
    Codec ID                    : S_TEXT/UTF8
    Codec ID/Info               : UTF-8 Plain Text
    Duration                    : 1 h 51 min
    Bit rate                    : 34 b/s
    Count of elements           : 929
    Stream size                 : 28.4 KiB (0%)
    Title                       : Norwegian Bokmal
    Language                    : Norwegian Bokmal
    Default                     : No
    Forced                      : No
    
    Text #22
    ID                          : 24
    Format                      : UTF-8
    Codec ID                    : S_TEXT/UTF8
    Codec ID/Info               : UTF-8 Plain Text
    Duration                    : 1 h 51 min
    Bit rate                    : 33 b/s
    Count of elements           : 945
    Stream size                 : 27.7 KiB (0%)
    Title                       : Polish
    Language                    : Polish
    Default                     : No
    Forced                      : No
    
    Text #23
    ID                          : 25
    Format                      : UTF-8
    Codec ID                    : S_TEXT/UTF8
    Codec ID/Info               : UTF-8 Plain Text
    Duration                    : 1 h 52 min
    Bit rate                    : 51 b/s
    Count of elements           : 1418
    Stream size                 : 42.2 KiB (0%)
    Title                       : Brazilian Portuguese [CC]
    Language                    : Portuguese
    Default                     : No
    Forced                      : No
    
    Text #24
    ID                          : 26
    Format                      : UTF-8
    Codec ID                    : S_TEXT/UTF8
    Codec ID/Info               : UTF-8 Plain Text
    Duration                    : 1 h 51 min
    Bit rate                    : 35 b/s
    Count of elements           : 979
    Stream size                 : 29.1 KiB (0%)
    Title                       : Brazilian Portuguese
    Language                    : Portuguese
    Default                     : No
    Forced                      : No
    
    Text #25
    ID                          : 27
    Format                      : UTF-8
    Codec ID                    : S_TEXT/UTF8
    Codec ID/Info               : UTF-8 Plain Text
    Duration                    : 1 h 51 min
    Bit rate                    : 36 b/s
    Count of elements           : 954
    Stream size                 : 30.0 KiB (0%)
    Title                       : Portuguese
    Language                    : Portuguese
    Default                     : No
    Forced                      : No
    
    Text #26
    ID                          : 28
    Format                      : UTF-8
    Codec ID                    : S_TEXT/UTF8
    Codec ID/Info               : UTF-8 Plain Text
    Duration                    : 1 h 51 min
    Bit rate                    : 40 b/s
    Count of elements           : 948
    Stream size                 : 33.3 KiB (0%)
    Title                       : Romanian
    Language                    : Romanian
    Default                     : No
    Forced                      : No
    
    Text #27
    ID                          : 29
    Format                      : UTF-8
    Codec ID                    : S_TEXT/UTF8
    Codec ID/Info               : UTF-8 Plain Text
    Duration                    : 1 h 51 min
    Bit rate                    : 59 b/s
    Count of elements           : 955
    Stream size                 : 48.8 KiB (0%)
    Title                       : Russian
    Language                    : Russian
    Default                     : No
    Forced                      : No
    
    Text #28
    ID                          : 30
    Format                      : UTF-8
    Codec ID                    : S_TEXT/UTF8
    Codec ID/Info               : UTF-8 Plain Text
    Duration                    : 1 h 51 min
    Bit rate                    : 34 b/s
    Count of elements           : 993
    Stream size                 : 28.2 KiB (0%)
    Title                       : European Spanish
    Language                    : Spanish
    Default                     : No
    Forced                      : No
    
    Text #29
    ID                          : 31
    Format                      : UTF-8
    Codec ID                    : S_TEXT/UTF8
    Codec ID/Info               : UTF-8 Plain Text
    Duration                    : 1 h 51 min
    Bit rate                    : 33 b/s
    Count of elements           : 971
    Stream size                 : 27.7 KiB (0%)
    Title                       : Spanish
    Language                    : Spanish
    Default                     : No
    Forced                      : No
    
    Text #30
    ID                          : 32
    Format                      : UTF-8
    Codec ID                    : S_TEXT/UTF8
    Codec ID/Info               : UTF-8 Plain Text
    Duration                    : 1 h 51 min
    Bit rate                    : 35 b/s
    Count of elements           : 903
    Stream size                 : 28.9 KiB (0%)
    Title                       : Swedish
    Language                    : Swedish
    Default                     : No
    Forced                      : No
    
    Text #31
    ID                          : 33
    Format                      : UTF-8
    Codec ID                    : S_TEXT/UTF8
    Codec ID/Info               : UTF-8 Plain Text
    Duration                    : 1 h 51 min
    Bit rate                    : 96 b/s
    Count of elements           : 971
    Stream size                 : 78.7 KiB (0%)
    Title                       : Thai
    Language                    : Thai
    Default                     : No
    Forced                      : No
    
    Text #32
    ID                          : 34
    Format                      : UTF-8
    Codec ID                    : S_TEXT/UTF8
    Codec ID/Info               : UTF-8 Plain Text
    Duration                    : 1 h 51 min
    Bit rate                    : 37 b/s
    Count of elements           : 950
    Stream size                 : 30.7 KiB (0%)
    Title                       : Turkish
    Language                    : Turkish
    Default                     : No
    Forced                      : No
    
    Text #33
    ID                          : 35
    Format                      : UTF-8
    Codec ID                    : S_TEXT/UTF8
    Codec ID/Info               : UTF-8 Plain Text
    Duration                    : 1 h 51 min
    Bit rate                    : 56 b/s
    Count of elements           : 974
    Stream size                 : 46.2 KiB (0%)
    Title                       : Ukrainian
    Language                    : Ukrainian
    Default                     : No
    Forced                      : No
    
    Text #34
    ID                          : 36
    Format                      : UTF-8
    Codec ID                    : S_TEXT/UTF8
    Codec ID/Info               : UTF-8 Plain Text
    Duration                    : 1 h 51 min
    Bit rate                    : 51 b/s
    Count of elements           : 982
    Stream size                 : 42.4 KiB (0%)
    Title                       : Vietnamese
    Language                    : Vietnamese
    Default                     : No
    Forced                      : No
    Download - Mirror 1:
    Download - Mirror 2:
     
  2. Loading...


Share This Page