Google Drive The.Vanished.2020.1080p.WEB-DL.H264.AC3-EVO

Discussion in 'Web-DL / Webrip | 1080p' started by DDLbase, Aug 21, 2020.

  1. DDLbase

    DDLbase Administrator Staff Member

    [​IMG]

    Rating: 5.9/10 based on 70 user ratings

    Genres: Action, Mystery, Thriller

    Story of a husband and wife that will stop at nothing to find her missing daughter, who disappeared on a family camping trip. When the police don’t catch any leads, the duo take over.

    [​IMG]
    Code:
    General
    Unique ID                   : 243798572366524313110411999557473988207 (0xB769E5A7D17F3A2CB003D9C58172EE6F)
    Complete name               : The.Vanished.2020.1080p.WEB-DL.H264.AC3-EVO.mkv
    Format                      : Matroska
    Format version              : Version 4
    File size                   : 3.96 GiB
    Duration                    : 1 h 54 min
    Overall bit rate            : 4 940 kb/s
    Encoded date                : UTC 2020-08-20 18:09:23
    Writing application         : mkvmerge v6.7.0 ('Back to the Ground') 64bit built on Jan  8 2014 15:10:52
    Writing library             : libebml v1.3.0 + libmatroska v1.4.1
    
    Video
    ID                          : 2
    Format                      : AVC
    Format/Info                 : Advanced Video Codec
    Format profile              : [email protected]
    Format settings             : CABAC / 5 Ref Frames
    Format settings, CABAC      : Yes
    Format settings, Reference  : 5 frames
    Codec ID                    : V_MPEG4/ISO/AVC
    Duration                    : 1 h 54 min
    Bit rate                    : 4 458 kb/s
    Width                       : 1 920 pixels
    Height                      : 804 pixels
    Display aspect ratio        : 2.40:1
    Frame rate mode             : Constant
    Frame rate                  : 24.000 FPS
    Color space                 : YUV
    Chroma subsampling          : 4:2:0
    Bit depth                   : 8 bits
    Scan type                   : Progressive
    Bits/(Pixel*Frame)          : 0.120
    Stream size                 : 3.57 GiB (90%)
    Language                    : English
    Default                     : Yes
    Forced                      : No
    Color range                 : Limited
    Color primaries             : BT.709
    Transfer characteristics    : BT.709
    Matrix coefficients         : BT.709
    
    Audio
    ID                          : 1
    Format                      : AC-3
    Format/Info                 : Audio Coding 3
    Commercial name             : Dolby Digital
    Codec ID                    : A_AC3
    Duration                    : 1 h 54 min
    Bit rate mode               : Constant
    Bit rate                    : 384 kb/s
    Channel(s)                  : 6 channels
    Channel layout              : L R C LFE Ls Rs
    Sampling rate               : 48.0 kHz
    Frame rate                  : 31.250 FPS (1536 SPF)
    Compression mode            : Lossy
    Stream size                 : 315 MiB (8%)
    Language                    : English
    Service kind                : Complete Main
    Default                     : Yes
    Forced                      : No
    
    Menu
    00:00:00.000                : en:Глава 1
    00:04:42.958                : en:Глава 2
    00:13:35.958                : en:Глава 3
    00:18:31.373                : en:Глава 4
    00:23:03.373                : en:Глава 5
    00:29:45.706                : en:Глава 6
    00:37:53.746                : en:Глава 7
    00:48:15.579                : en:Глава 8
    00:56:11.995                : en:Глава 9
    01:05:33.245                : en:Глава 10
    01:16:48.411                : en:Глава 11
    01:25:14.036                : en:Глава 12
    01:36:12.493                : en:Глава 13
    01:41:48.659                : en:Глава 14
    Download - Mirror 1:
    Download - Mirror 2:
     
  2. Loading...


Share This Page