Google Drive The.Vanishing.1988.1080p.BluRay.x264-DAA

Discussion in 'BDRip | 720p/1080p' started by DDLbase, Aug 12, 2020.

  1. DDLbase

    DDLbase Administrator Staff Member

    [​IMG]

    Rating: 7.7/10 based on 32,900 user ratings

    Genres: Mystery, Thriller

    Rex and Saskia, a young couple in love, are on vacation. They stop at a busy service station and Saskia is abducted. After three years and no sign of Saskia, Rex begins receiving letters from the abductor.

    [​IMG]
    Code:
    General
    Unique ID                   : 251732101560184194467282004302358309853 (0xBD61D6D828C622B88C8FCDD2C3DEEBDD)
    Complete name               : The.Vanishing.1988.1080p.BluRay.x264-DAA.mkv
    Format                      : Matroska
    Format version              : Version 2
    File size                   : 8.73 GiB
    Duration                    : 1 h 46 min
    Overall bit rate mode       : Variable
    Overall bit rate            : 11.8 Mb/s
    Encoded date                : UTC 2014-11-01 12:45:50
    Writing application         : mkvmerge v7.3.0 ('Nouages') 32bit built on Oct 22 2014 18:44:01
    Writing library             : libebml v1.3.0 + libmatroska v1.4.1
    
    Video
    ID                          : 1
    Format                      : AVC
    Format/Info                 : Advanced Video Codec
    Format profile              : [email protected]
    Format settings             : CABAC / 4 Ref Frames
    Format settings, CABAC      : Yes
    Format settings, Reference  : 4 frames
    Codec ID                    : V_MPEG4/ISO/AVC
    Duration                    : 1 h 46 min
    Bit rate                    : 11.1 Mb/s
    Width                       : 1 808 pixels
    Height                      : 1 080 pixels
    Display aspect ratio        : 5:3
    Frame rate mode             : Constant
    Frame rate                  : 23.976 (24000/1001) FPS
    Color space                 : YUV
    Chroma subsampling          : 4:2:0
    Bit depth                   : 8 bits
    Scan type                   : Progressive
    Bits/(Pixel*Frame)          : 0.237
    Stream size                 : 8.24 GiB (94%)
    Writing library             : x264 core 142 r2479kMod dd79a61
    Encoding settings           : cabac=1 / ref=4 / deblock=1:-3:-3 / analyse=0x3:0x113 / me=umh / subme=8 / psy=1 / fade_compensate=0.00 / psy_rd=1.10:0.00 / mixed_ref=1 / me_range=16 / chroma_me=1 / trellis=1 / 8x8dct=1 / cqm=0 / deadzone=21,11 / fast_pskip=1 / chroma_qp_offset=-2 / threads=1 / lookahead_threads=1 / sliced_threads=0 / nr=0 / decimate=1 / interlaced=0 / bluray_compat=0 / constrained_intra=0 / fgo=0 / bframes=3 / b_pyramid=2 / b_adapt=2 / b_bias=0 / direct=3 / weightb=1 / open_gop=0 / weightp=2 / keyint=240 / keyint_min=24 / scenecut=40 / intra_refresh=0 / rc_lookahead=50 / rc=2pass / mbtree=1 / bitrate=11090 / ratetol=1.0 / qcomp=0.60 / qpmin=0 / qpmax=69 / qpstep=4 / cplxblur=20.0 / qblur=0.5 / ip_ratio=1.40 / aq=1:0.70
    Language                    : English
    Default                     : Yes
    Forced                      : No
    
    Audio
    ID                          : 2
    Format                      : FLAC
    Format/Info                 : Free Lossless Audio Codec
    Codec ID                    : A_FLAC
    Duration                    : 1 h 46 min
    Bit rate mode               : Variable
    Bit rate                    : 666 kb/s
    Channel(s)                  : 1 channel
    Channel layout              : C
    Sampling rate               : 48.0 kHz
    Frame rate                  : 11.719 FPS (4096 SPF)
    Bit depth                   : 24 bits
    Compression mode            : Lossless
    Stream size                 : 507 MiB (6%)
    Writing library             : libFLAC 1.2.1 (UTC 2007-09-17)
    Language                    : Dutch
    Default                     : Yes
    Forced                      : No
    
    Text
    ID                          : 3
    Format                      : UTF-8
    Codec ID                    : S_TEXT/UTF8
    Codec ID/Info               : UTF-8 Plain Text
    Duration                    : 1 h 43 min
    Bit rate                    : 33 b/s
    Count of elements           : 833
    Stream size                 : 25.5 KiB (0%)
    Language                    : English
    Default                     : Yes
    Forced                      : Yes
    
    Menu
    00:00:00.000                : en:00:00:00.000
    00:03:43.682                : en:00:03:43.682
    00:08:28.925                : en:00:08:28.925
    00:12:43.429                : en:00:12:43.429
    00:16:41.167                : en:00:16:41.167
    00:19:37.343                : en:00:19:37.343
    00:24:31.845                : en:00:24:31.845
    00:28:07.978                : en:00:28:07.978
    00:34:29.234                : en:00:34:29.234
    00:40:13.953                : en:00:40:13.953
    00:48:08.094                : en:00:48:08.094
    00:51:42.516                : en:00:51:42.516
    00:54:47.701                : en:00:54:47.701
    01:02:40.548                : en:01:02:40.548
    01:05:15.787                : en:01:05:15.787
    01:08:47.582                : en:01:08:47.582
    01:13:27.903                : en:01:13:27.903
    01:18:44.553                : en:01:18:44.553
    01:21:47.528                : en:01:21:47.528
    01:26:32.604                : en:01:26:32.604
    01:32:05.562                : en:01:32:05.562
    01:37:25.006                : en:01:37:25.006
    01:40:06.667                : en:01:40:06.667
    Download - Mirror 1:
    Download - Mirror 2:
     
  2. Loading...


Share This Page