MEGA The Void 2016 1080p Blu-ray Remux AVC DTS-HD MA 5.1 - KRaLiMaRKo

Discussion in 'BD REMUX | 1080p' started by DDLbase, Jun 7, 2019.

  1. DDLbase

    DDLbase Administrator Staff Member

    [​IMG]

    A cop transfers a wounded man to a small hospital, where it won't take long for violence to erupt. The few doctors and patients there find themselves surrounded by a group of hooded men and threatened by a strange creature growing in the hospital.

    [​IMG][​IMG][​IMG][​IMG][​IMG][​IMG]

    Code:
    Format                                   : Matroska
    Format version                           : Version 4 / Version 2
    File size                                : 15.6 GiB
    Duration                                 : 1 h 30 min
    Overall bit rate                         : 24.6 Mb/s
    Movie name                               : The Void 2016 1080p Blu-ray Remux AVC DTS-HD MA 5.1 - KRaLiMaRKo
    Encoded date                             : UTC 2017-04-28 17:07:19
    Writing application                      : mkvmerge v9.7.1 ('Pandemonium') 64bit
    Writing library                          : libebml v1.3.4 + libmatroska v1.4.5
    
    Video
    ID                                       : 1
    Format                                   : AVC
    Format/Info                              : Advanced Video Codec
    Format profile                           : [email protected]
    Format settings, CABAC                   : Yes
    Format settings, ReFrames                : 4 frames
    Codec ID                                 : V_MPEG4/ISO/AVC
    Duration                                 : 1 h 30 min
    Bit rate mode                            : Constant
    Bit rate                                 : 22.9 Mb/s
    Nominal bit rate                         : 25.0 Mb/s
    Width                                    : 1 920 pixels
    Height                                   : 1 080 pixels
    Display aspect ratio                     : 16:9
    Frame rate mode                          : Constant
    Frame rate                               : 23.976 (24000/1001) FPS
    Standard                                 : NTSC
    Color space                              : YUV
    Chroma subsampling                       : 4:2:0
    Bit depth                                : 8 bits
    Scan type                                : Progressive
    Bits/(Pixel*Frame)                       : 0.461
    Stream size                              : 14.5 GiB (93%)
    Language                                 : English
    Default                                  : Yes
    Forced                                   : No
    Color range                              : Limited
    Color primaries                          : BT.709
    Transfer characteristics                 : BT.709
    Matrix coefficients                      : BT.709
    
    Audio
    ID                                       : 2
    Format                                   : DTS
    Format/Info                              : Digital Theater Systems
    Format profile                           : MA / Core
    Mode                                     : 16
    Format settings, Endianness              : Big
    Codec ID                                 : A_DTS
    Duration                                 : 1 h 30 min
    Bit rate mode                            : Variable / Constant
    Bit rate                                 : 1 692 kb/s / 1 509 kb/s
    Channel(s)                               : 6 channels
    Channel positions                        : Front: L C R, Side: L R, LFE
    Sampling rate                            : 48.0 kHz
    Frame rate                               : 93.750 FPS (512 spf)
    Bit depth                                : 16 bits
    Compression mode                         : Lossless / Lossy
    Stream size                              : 1.07 GiB (7%)
    Language                                 : English
    Default                                  : Yes
    Forced                                   : No
    
    Menu
    00:00:00.000                             : en:00:00:00.000
    00:15:11.536                             : en:00:15:11.536
    00:34:54.884                             : en:00:34:54.884
    00:51:30.546                             : en:00:51:30.546
    01:05:36.933                             : en:01:05:36.933
    01:18:24.366                             : en:01:18:24.366
    Download:
     
  2. Loading...


Share This Page