Google Drive The.Wave.2015.1080p.BluRay.DTS.x264-TayTO

Discussion in 'BDRip | 720p/1080p' started by DDLbase, Apr 5, 2021.

  1. DDLbase

    DDLbase Administrator Staff Member

    [​IMG]

    Rating: 6.7/10 based on 34,360 user ratings

    Genres: Drama, Thriller

    Although anticipated, no one is really ready when the mountain pass above the scenic, narrow Norwegian fjord Geiranger collapses and creates an 85-meter high violent tsunami. A geologist is one of those caught in the middle of it.

    [​IMG]
    Code:
    General
    Unique ID                   : 199011339048522431743318694523446886197 (0x95B8309123130F96A1DE928E3285FF35)
    Complete name               : The.Wave.2015.1080p.BluRay.DTS.x264-TayTO.mkv
    Format                      : Matroska
    Format version              : Version 4
    File size                   : 10.8 GiB
    Duration                    : 1 h 44 min
    Overall bit rate            : 14.7 Mb/s
    Movie name                  : hungdaita @ TayTO
    Encoded date                : UTC 2015-12-07 22:37:36
    Writing application         : mkvmerge v8.2.0 ('World of Adventure') 64bit
    Writing library             : libebml v1.3.1 + libmatroska v1.4.2
    Cover                       : Yes
    Attachments                 : Cover.jpg
    
    Video
    ID                          : 1
    Format                      : AVC
    Format/Info                 : Advanced Video Codec
    Format profile              : [email protected]
    Format settings             : CABAC / 5 Ref Frames
    Format settings, CABAC      : Yes
    Format settings, Reference  : 5 frames
    Codec ID                    : V_MPEG4/ISO/AVC
    Duration                    : 1 h 44 min
    Bit rate                    : 13.2 Mb/s
    Width                       : 1 920 pixels
    Height                      : 806 pixels
    Display aspect ratio        : 2.40:1
    Frame rate mode             : Constant
    Frame rate                  : 24.000 FPS
    Color space                 : YUV
    Chroma subsampling          : 4:2:0
    Bit depth                   : 8 bits
    Scan type                   : Progressive
    Bits/(Pixel*Frame)          : 0.355
    Stream size                 : 9.66 GiB (90%)
    Writing library             : x264 core 142 r2431+42 c69a006 tMod [[email protected] X86_64]
    Encoding settings           : cabac=1 / ref=5 / deblock=1:-3:-3 / analyse=0x3:0x133 / me=umh / subme=11 / psy=1 / fade_compensate=0.00 / psy_rd=1.05:0.00 / mixed_ref=1 / me_range=32 / chroma_me=1 / trellis=2 / 8x8dct=1 / cqm=0 / deadzone=21,11 / fast_pskip=1 / chroma_qp_offset=-2 / threads=12 / lookahead_threads=2 / sliced_threads=0 / nr=0 / decimate=0 / interlaced=0 / bluray_compat=0 / constrained_intra=0 / fgo=0 / bframes=8 / b_pyramid=2 / b_adapt=2 / b_bias=0 / direct=3 / weightb=1 / open_gop=0 / weightp=2 / keyint=250 / keyint_min=24 / scenecut=40 / intra_refresh=0 / rc_lookahead=60 / rc=crf / mbtree=0 / crf=17.8000 / qcomp=0.65 / qpmin=0:0:0 / qpmax=69:69:69 / qpstep=4 / vbv_maxrate=62500 / vbv_bufsize=78125 / crf_max=0.0 / nal_hrd=none / filler=0 / ip_ratio=1.24 / pb_ratio=1.18 / aq=3:0.70 / aq-sensitivity=10.00 / aq-factor=1.00:1.00:1.00 / aq2=0 / aq3=0 / zones=72,167,crf=14.8/9546,10666,crf=14.8/26408,28184,crf=16.3/37969,38090,crf=14.8/45894,47953,crf=14.8/55057,55620,crf=14.8/58424,59983,crf=16.3/60178,60273,crf=14.8/61310,62111,crf=14.8/73202,73497,crf=15.5/73631,73744,crf=14.8/73853,74175,crf=15.5/74710,74764,crf=14.8/79120,79193,crf=14.8/79426,79757,crf=14.8/83668,83830,crf=14.8/85655,86270,crf=14.8/144545,151090,crf=22
    Language                    : Norwegian
    Default                     : Yes
    Forced                      : No
    Color range                 : Limited
    Matrix coefficients         : BT.709
    
    Audio
    ID                          : 2
    Format                      : DTS
    Format/Info                 : Digital Theater Systems
    Codec ID                    : A_DTS
    Duration                    : 1 h 44 min
    Bit rate mode               : Constant
    Bit rate                    : 1 509 kb/s
    Channel(s)                  : 6 channels
    Channel layout              : C L R Ls Rs LFE
    Sampling rate               : 48.0 kHz
    Frame rate                  : 93.750 FPS (512 SPF)
    Bit depth                   : 24 bits
    Compression mode            : Lossy
    Stream size                 : 1.11 GiB (10%)
    Language                    : Norwegian
    Default                     : Yes
    Forced                      : No
    
    Text #1
    ID                          : 3
    Format                      : UTF-8
    Codec ID                    : S_TEXT/UTF8
    Codec ID/Info               : UTF-8 Plain Text
    Duration                    : 1 h 44 min
    Bit rate                    : 25 b/s
    Count of elements           : 548
    Stream size                 : 19.6 KiB (0%)
    Language                    : English
    Default                     : No
    Forced                      : No
    
    Text #2
    ID                          : 4
    Format                      : UTF-8
    Codec ID                    : S_TEXT/UTF8
    Codec ID/Info               : UTF-8 Plain Text
    Duration                    : 1 h 44 min
    Bit rate                    : 23 b/s
    Count of elements           : 553
    Stream size                 : 17.8 KiB (0%)
    Language                    : Norwegian
    Default                     : No
    Forced                      : No
    
    Text #3
    ID                          : 5
    Format                      : UTF-8
    Codec ID                    : S_TEXT/UTF8
    Codec ID/Info               : UTF-8 Plain Text
    Duration                    : 1 h 44 min
    Bit rate                    : 23 b/s
    Count of elements           : 529
    Stream size                 : 18.2 KiB (0%)
    Language                    : Danish
    Default                     : No
    Forced                      : No
    
    Text #4
    ID                          : 6
    Format                      : UTF-8
    Codec ID                    : S_TEXT/UTF8
    Codec ID/Info               : UTF-8 Plain Text
    Duration                    : 1 h 44 min
    Bit rate                    : 23 b/s
    Count of elements           : 529
    Stream size                 : 17.7 KiB (0%)
    Language                    : Finnish
    Default                     : No
    Forced                      : No
    
    Text #5
    ID                          : 7
    Format                      : UTF-8
    Codec ID                    : S_TEXT/UTF8
    Codec ID/Info               : UTF-8 Plain Text
    Duration                    : 1 h 44 min
    Bit rate                    : 24 b/s
    Count of elements           : 530
    Stream size                 : 18.4 KiB (0%)
    Language                    : Swedish
    Default                     : No
    Forced                      : No
    
    Text #6
    ID                          : 8
    Format                      : UTF-8
    Codec ID                    : S_TEXT/UTF8
    Codec ID/Info               : UTF-8 Plain Text
    Duration                    : 1 h 44 min
    Bit rate                    : 31 b/s
    Count of elements           : 548
    Stream size                 : 24.1 KiB (0%)
    Language                    : Vietnamese
    Default                     : No
    Forced                      : No
    
    Menu
    00:00:00.000                : en:00:00:00.000
    00:09:59.625                : en:00:09:59.625
    00:19:59.583                : en:00:19:59.583
    00:30:00.000                : en:00:30:00.000
    00:39:59.875                : en:00:39:59.875
    00:49:59.667                : en:00:49:59.667
    01:00:00.000                : en:01:00:00.000
    01:09:59.667                : en:01:09:59.667
    01:19:59.792                : en:01:19:59.792
    01:30:00.000                : en:01:30:00.000
    01:39:59.750                : en:01:39:59.750
    Download - Mirror 1:
    Download - Mirror 2:
     
  2. Loading...


Share This Page