Google Drive The.Way.of.the.Gun.2000.1080p.BluRay.x264-FSiHD

Discussion in 'BDRip | 720p/1080p' started by DDLbase, Jul 11, 2020.

  1. DDLbase

    DDLbase Administrator Staff Member

    [​IMG]

    Rating: 6.7/10 based on 31,214 user ratings

    Genres: Action, Crime, Drama, Thriller

    Two criminal drifters without sympathy get more than they bargained for after kidnapping and holding for ransom the surrogate mother of a powerful and shady man.

    [​IMG]
    Code:
    General
    Unique ID                   : 236576484126197250312261760171514669470 (0xB1FAF936BFAD783DB50C6CA4B69A299E)
    Complete name               : The.Way.of.the.Gun.2000.1080p.BluRay.x264-FSiHD.mkv
    Format                      : Matroska
    Format version              : Version 2
    File size                   : 8.74 GiB
    Duration                    : 2 h 0 min
    Overall bit rate            : 10.4 Mb/s
    Encoded date                : UTC 2010-05-04 12:21:59
    Writing application         : mkvmerge v3.0.0 ('Hang up your Hang-Ups') built on Dec 12 2009 15:20:35
    Writing library             : libebml v0.7.9 + libmatroska v0.8.1
    
    Video
    ID                          : 1
    Format                      : AVC
    Format/Info                 : Advanced Video Codec
    Format profile              : [email protected]
    Format settings             : CABAC / 4 Ref Frames
    Format settings, CABAC      : Yes
    Format settings, Reference  : 4 frames
    Codec ID                    : V_MPEG4/ISO/AVC
    Duration                    : 2 h 0 min
    Bit rate                    : 8 918 kb/s
    Width                       : 1 920 pixels
    Height                      : 1 080 pixels
    Display aspect ratio        : 16:9
    Frame rate mode             : Constant
    Frame rate                  : 23.976 FPS
    Color space                 : YUV
    Chroma subsampling          : 4:2:0
    Bit depth                   : 8 bits
    Scan type                   : Progressive
    Bits/(Pixel*Frame)          : 0.179
    Stream size                 : 7.31 GiB (84%)
    Writing library             : x264 core 94 r1570 d9db8b3
    Encoding settings           : cabac=1 / ref=4 / deblock=1:0:0 / analyse=0x3:0x133 / me=umh / subme=8 / psy=1 / psy_rd=1.00:0.00 / mixed_ref=1 / me_range=16 / chroma_me=1 / trellis=1 / 8x8dct=1 / cqm=0 / deadzone=21,11 / fast_pskip=0 / chroma_qp_offset=-2 / threads=12 / sliced_threads=0 / nr=0 / decimate=1 / interlaced=0 / constrained_intra=0 / bframes=3 / b_pyramid=2 / b_adapt=1 / b_bias=0 / direct=1 / wpredb=1 / wpredp=2 / keyint=250 / keyint_min=25 / scenecut=40 / intra_refresh=0 / rc_lookahead=40 / rc=2pass / mbtree=1 / bitrate=8918 / ratetol=1.0 / qcomp=0.60 / qpmin=10 / qpmax=51 / qpstep=4 / cplxblur=20.0 / qblur=0.5 / ip_ratio=1.40 / aq=1:1.00
    Language                    : English
    Default                     : No
    Forced                      : No
    
    Audio
    ID                          : 2
    Format                      : DTS
    Format/Info                 : Digital Theater Systems
    Codec ID                    : A_DTS
    Duration                    : 2 h 0 min
    Bit rate mode               : Constant
    Bit rate                    : 1 509 kb/s
    Channel(s)                  : 6 channels
    Channel layout              : C L R Ls Rs LFE
    Sampling rate               : 48.0 kHz
    Frame rate                  : 93.750 FPS (512 SPF)
    Bit depth                   : 24 bits
    Compression mode            : Lossy
    Stream size                 : 1.27 GiB (14%)
    Default                     : Yes
    Forced                      : No
    
    Text #1
    ID                          : 3
    Format                      : UTF-8
    Codec ID                    : S_TEXT/UTF8
    Codec ID/Info               : UTF-8 Plain Text
    Title                       : eng
    Language                    : English
    Default                     : Yes
    Forced                      : No
    
    Text #2
    ID                          : 4
    Format                      : UTF-8
    Codec ID                    : S_TEXT/UTF8
    Codec ID/Info               : UTF-8 Plain Text
    Title                       : spa
    Language                    : Spanish
    Default                     : No
    Forced                      : No
    
    Menu
    00:00:00.000                : en:00:00:00.000
    00:08:05.235                : en:00:08:05.235
    00:16:05.715                : en:00:16:05.715
    00:22:35.563                : en:00:22:35.563
    00:31:01.860                : en:00:31:01.860
    00:37:41.843                : en:00:37:41.843
    00:48:59.854                : en:00:48:59.854
    00:55:37.000                : en:00:55:37.000
    01:05:26.256                : en:01:05:26.256
    01:12:04.946                : en:01:12:04.946
    01:18:35.753                : en:01:18:35.753
    01:21:52.324                : en:01:21:52.324
    01:27:12.477                : en:01:27:12.477
    01:33:09.751                : en:01:33:09.751
    01:43:24.115                : en:01:43:24.115
    01:51:06.577                : en:01:51:06.577
    Download - Mirror 1:
    Download - Mirror 2:
     
  2. Loading...


Share This Page